Статистика раздачи
Размер:  3,36 GB   |    Зарегистрирован:  7 месяцев 28 дней   |    Скачан:  0 раз
DL-List: Нет

Полного источника не было: Никогда

 
     
 
 

MAGNAT ®

Пол:
Мужской
Стаж:
1 год 7 месяцев
Сообщений:
9096

Силиконовая долина | Кремниевая долина | Silicon Valley- Год выпуска: 2019
Страна: США
Жанр: Комедия
Продолжительность: ~ 00:30:00-Перевод: Профессиональный (двухголосый закадровый) | Кубик в кубе-Режиссёр: Майк Джадж / Mike Judge, Алек Берг / Alec Berg, Джеми Бэббит / Jamie Babbit, Лиза Джонсон / Liza Johnson-В ролях: Томас Миддлдитч, Джош Бренер, Мартин Старр, Кумэйл Нанджиани, Аманда Крю, Зак Вудс, Мэтт Росс, Сюзанн Крайер, Джимми О. Ян, Крис Диамантополос, Крис Уильямс, Бернард Уайт-Описание: История о группе гиков, готовящих к запуску собственные стартапы в высокотехнологичном центре Сан-Франциско. В заключительном сезоне компания «Пегий Дудочник», за развитием и ростом которой зрители следили целых пять лет, становится настоящим технологическим гигантом. Но большой успех не обходится без проблем — и появляются они обычно одновременно. Ричард Хендрикс предстанет на слушаниях в Конгрессе США — такие вопросы самого Марка Цукерберга застали бы врасплох. «Переизобрести Интернет», как мечталось команде, тоже оказывается не так просто. Итак, готовы ли герои выдержать то, к чему так долго стремились?-Качество: WEB-DLRip
Формат: AVI
Видео: XviD, 720x400 (16:9), 23.976 кадров/сек, 1600 Кбит/сек
Аудио Rus: AC3, 48,0 kHz, 2 ch, 192 Кбит/сек | Кубик в кубе
Аудио Eng: AC3, 48,0 kHz, 2 ch, 192 Кбит/сек
Субтитры: Русские, английские
Реклама: Отсутствует-

Список серий

01. Искусственное отсутствие интеллекта / Artificial Lack of Intelligence
02. Кровавые деньги / Blood Money
03. Hooli прикуривает / Hooli Smokes!
04. Прокачка альфы / Maximizing Alphaness
05. Тетика / Tethics
06. Расс-Фест / RussFest
07. Заключительный ивент / Exit Event

MediaInfo

Общее
Полное имя : E:\Silicon Valley\Silicon.Valley.S06E01.WEB-DLRip.RGzsRutracker.[Wentworth_Miller].avi
Формат : AVI
Формат/Информация : Audio Video Interleave
Размер файла : 472 Мбайт
Продолжительность : 32 м. 59 с.
Общий поток : 1998 Кбит/сек
Программа кодирования : VirtualDubMod 1.5.10.3 | www.virtualdub-fr.org || (build 2550/release)
Библиотека кодирования : VirtualDubMod build 2550/release
Видео
Идентификатор : 0
Формат : MPEG-4 Visual
Профиль формата : Advanced Simple@L5
Настройки формата : BVOP1
Параметр BVOP формата : 1
Параметр QPel формата : Нет
Параметр GMC формата : Без точки перехода
Параметр матрицы формата : Default (MPEG)
Идентификатор кодека : XVID
Идентификатор кодека/Подсказка : XviD
Продолжительность : 32 м. 59 с.
Битрейт : 1600 Кбит/сек
Ширина : 720 пикселей
Высота : 400 пикселей
Соотношение сторон : 16:9
Частота кадров : 23,976 (24000/1001) кадра/сек
Цветовое пространство : YUV
Субдискретизация насыщенности : 4:2:0
Битовая глубина : 8 бит
Тип развёртки : Прогрессивная
Метод сжатия : С потерями
Бит/(Пиксели*Кадры) : 0.232
Размер потока : 378 Мбайт (80%)
Библиотека кодирования : XviD 67
Аудио #1
Идентификатор : 1
Формат : AC-3
Формат/Информация : Audio Coding 3
Коммерческое название : Dolby Digital
Идентификатор кодека : 2000
Продолжительность : 32 м. 59 с.
Вид битрейта : Постоянный
Битрейт : 192 Кбит/сек
Каналы : 2 канала
ChannelLayout : L R
Частота : 48,0 КГц
Частота кадров : 31,250 кадров/сек (1536 SPF)
Метод сжатия : С потерями
Размер потока : 45,3 Мбайт (10%)
Выравнивание : Разделение по промежуткам
Продолжительность промежутка : 42 мс. (1,00 видеокадр)
Время предзагрузки промежутка : 500 мс.
ServiceKind/String : Complete Main
Аудио #2
Идентификатор : 2
Формат : AC-3
Формат/Информация : Audio Coding 3
Коммерческое название : Dolby Digital
Идентификатор кодека : 2000
Продолжительность : 32 м. 59 с.
Вид битрейта : Постоянный
Битрейт : 192 Кбит/сек
Каналы : 2 канала
ChannelLayout : L R
Частота : 48,0 КГц
Частота кадров : 31,250 кадров/сек (1536 SPF)
Метод сжатия : С потерями
Размер потока : 45,3 Мбайт (10%)
Выравнивание : Разделение по промежуткам
Продолжительность промежутка : 42 мс. (1,00 видеокадр)
Время предзагрузки промежутка : 500 мс.
ServiceKind/String : Complete Main
-

Скриншоты

-
[cybertorrent.ru].t13662.torrent 
Торрент: Зарегистрирован [ 2020-03-30 08:19 ] · 5DE379D87C2FD85D7DA01730171FF533BDD73349

Скачать .torrent

Скачать

19 KB

Статус: проверено
Скачан: 0 раз
Размер: 3,36 GB  ·  Тип торрента
terms.php
Профиль [ЛС]
Показать сообщения:    

Текущее время: 27-Ноя 08:21

Часовой пояс: UTC ± 0



Вы не можете начинать темы
Вы не можете отвечать на сообщения
Вы не можете редактировать свои сообщения
Вы не можете удалять свои сообщения
Вы не можете голосовать в опросах
Вы не можете прикреплять файлы к сообщениям
Вы можете скачивать файлы