Статистика раздачи
Скачал: [ 1 ]
 
     
 
 

MAGNAT ®

Пол:
Мужской
Стаж:
2 года 6 месяцев
Сообщений:
11696

Откуда: Москва

Peter Breiner and His Orchestra / Beatles Go Baroque 2 (Johann Sebastian Bach, Antonio Vivaldi)
Жанр: classical, chamber music
Страна-производитель диска: Germany
Год издания диска: 2019
Издатель (лейбл): Naxos Rights Ltd.
Номер по каталогу: 8.574078
Страна: Slovakia
Аудиокодек: FLAC
Тип рипа: image+.cue
Битрейт аудио: lossless
Продолжительность: 01:09:59
Источник: собственный рип
Наличие сканов в содержимом раздачи: да
Треклист:
Johann Sebastian Bach
Keyboard Concerto No 1, BWV 1052

1. Come Together (3:00)
2. Blackbird (4:47)
3. Drive My Car (3:09)
Violin Concerto No 1, BWV 1041
4. I Want to Hold Your Hand (3:01)
5. Something (3:27)
6. Day Tripper (2:48)
branderburg Concerto No 2, BWV 1047
7. Nowhere Man (3:14)
8. While My Guitar Gently Weeps (3:43)
9. Ob-La-Di, Ob-La-Da (3:17)
Antonio Vivaldi
The Four Seasons, Op. 8

10. A Day in the Life (Spring I) (3:36)
11. Norwegian Wood (Spring III) (3:51)
12. Octopus's Garden (Autumn I) (4:07)
13. Because (Autumn II) (3:20)
14. Back in the U.S.S.R. (Winter I) (3:06)
15. Julia (Winter II) (3:41)
16. Get Back (Summer III) (3:06)
Johann Sebastian Bach
Mass in B minor, BWV 232

17. Here There and Everywhere (Kyrie) (3:24)
18. Yesterday (Et in terra pax) (3:32)
19. Hello Goodbye (Et resurrexit) (2:51)
20. The Beatles Abbey Road Medley(attacca), Golden Slumbers, Carry That Weight, The End (4:08)
21. Brandenburg ConcertoNo 3, BWV 1048, Her Majesty (0:51)

Лог создания рипа

Exact Audio Copy V1.1 from 23. June 2015
EAC extraction logfile from 8. March 2020, 17:26
Peter Breiner and His Orchestra / Beatles Go Baroque 2
Used drive : MATSHITADVD+-RW SW830 Adapter: 1 ID: 0
Read mode : Secure
Utilize accurate stream : Yes
Defeat audio cache : Yes
Make use of C2 pointers : No
Read offset correction : 6
Overread into Lead-In and Lead-Out : No
Fill up missing offset samples with silence : Yes
Delete leading and trailing silent blocks : No
Null samples used in CRC calculations : Yes
Used interface : Native Win32 interface for Win NT & 2000
Gap handling : Not detected, thus appended to previous track
Used output format : User Defined Encoder
Selected bitrate : 768 kBit/s
Quality : High
Add ID3 tag : No
Command line compressor : C:\Program Files (x86)\Exact Audio Copy\FLAC\FLAC.EXE
Additional command line options : -6 -V -T "ARTIST=%artist%" -T "TITLE=%title%" -T "ALBUM=%albumtitle%" -T "DATE=%year%" -T "TRACKNUMBER=%tracknr%" -T "GENRE=%genre%" -T "COMMENT=%comment%" -T "BAND=%albuminterpret%" -T "ALBUMARTIST=%albuminterpret%" -T "COMPOSER=%composer%" %haslyrics%--tag-from-file=LYRICS="%lyricsfile%"%haslyrics% -T "DISCNUMBER=%cdnumber%" -T "TOTALDISCS=%totalcds%" -T "TOTALTRACKS=%numtracks%" %hascover%--picture="%coverfile%"%hascover% %source% -o %dest%
TOC of the extracted CD
Track | Start | Length | Start sector | End sector
---------------------------------------------------------
1 | 0:00.00 | 3:00.26 | 0 | 13525
2 | 3:00.26 | 4:47.19 | 13526 | 35069
3 | 7:47.45 | 3:09.67 | 35070 | 49311
4 | 10:57.37 | 3:01.43 | 49312 | 62929
5 | 13:59.05 | 3:27.38 | 62930 | 78492
6 | 17:26.43 | 2:48.18 | 78493 | 91110
7 | 20:14.61 | 3:14.09 | 91111 | 105669
8 | 23:28.70 | 3:43.17 | 105670 | 122411
9 | 27:12.12 | 3:17.55 | 122412 | 137241
10 | 30:29.67 | 3:36.27 | 137242 | 153468
11 | 34:06.19 | 3:51.57 | 153469 | 170850
12 | 37:58.01 | 4:07.30 | 170851 | 189405
13 | 42:05.31 | 3:20.59 | 189406 | 204464
14 | 45:26.15 | 3:06.44 | 204465 | 218458
15 | 48:32.59 | 3:41.72 | 218459 | 235105
16 | 52:14.56 | 3:06.07 | 235106 | 249062
17 | 55:20.63 | 3:24.02 | 249063 | 264364
18 | 58:44.65 | 3:32.07 | 264365 | 280271
19 | 62:16.72 | 2:51.65 | 280272 | 293161
20 | 65:08.62 | 4:08.28 | 293162 | 311789
21 | 69:17.15 | 0:51.25 | 311790 | 315639
Track 1
Filename C:\Users\Boris\Desktop\lossless-galaxy.ru\BeatlBaroq2\01. Peter Breiner and His Orchestra - Johann Sebastian Bach Keyboard Concerto No 1, BWV 1052, Come Together.wav
Copy aborted
Track 2
Copy aborted
Track 3
Copy aborted
Track 4
Copy aborted
Track 5
Copy aborted
Track 6
Copy aborted
Track 7
Copy aborted
Track 8
Copy aborted
Track 9
Copy aborted
Track 10
Copy aborted
Track 11
Copy aborted
Track 12
Copy aborted
Track 13
Copy aborted
Track 14
Copy aborted
Track 15
Copy aborted
Track 16
Copy aborted
Track 17
Copy aborted
Track 18
Copy aborted
Track 19
Copy aborted
Track 20
Copy aborted
Track 21
Copy aborted
There were errors
End of status report
==== Log checksum 35BCDE1BDD928CE411A2070A5D96E90C7C8EC023B9614859E15917A4907AA342 ====
------------------------------------------------------------
Exact Audio Copy V1.1 from 23. June 2015
EAC extraction logfile from 8. March 2020, 17:45
Peter Breiner and His Orchestra / Beatles Go Baroque 2
Used drive : MATSHITADVD+-RW SW830 Adapter: 1 ID: 0
Read mode : Secure
Utilize accurate stream : Yes
Defeat audio cache : Yes
Make use of C2 pointers : No
Read offset correction : 6
Overread into Lead-In and Lead-Out : No
Fill up missing offset samples with silence : Yes
Delete leading and trailing silent blocks : No
Null samples used in CRC calculations : Yes
Used interface : Native Win32 interface for Win NT & 2000
Used output format : User Defined Encoder
Selected bitrate : 768 kBit/s
Quality : High
Add ID3 tag : No
Command line compressor : C:\Program Files (x86)\Exact Audio Copy\FLAC\FLAC.EXE
Additional command line options : -6 -V -T "ARTIST=%artist%" -T "TITLE=%title%" -T "ALBUM=%albumtitle%" -T "DATE=%year%" -T "TRACKNUMBER=%tracknr%" -T "GENRE=%genre%" -T "COMMENT=%comment%" -T "BAND=%albuminterpret%" -T "ALBUMARTIST=%albuminterpret%" -T "COMPOSER=%composer%" %haslyrics%--tag-from-file=LYRICS="%lyricsfile%"%haslyrics% -T "DISCNUMBER=%cdnumber%" -T "TOTALDISCS=%totalcds%" -T "TOTALTRACKS=%numtracks%" %hascover%--picture="%coverfile%"%hascover% %source% -o %dest%
TOC of the extracted CD
Track | Start | Length | Start sector | End sector
---------------------------------------------------------
1 | 0:00.00 | 3:00.26 | 0 | 13525
2 | 3:00.26 | 4:47.19 | 13526 | 35069
3 | 7:47.45 | 3:09.67 | 35070 | 49311
4 | 10:57.37 | 3:01.43 | 49312 | 62929
5 | 13:59.05 | 3:27.38 | 62930 | 78492
6 | 17:26.43 | 2:48.18 | 78493 | 91110
7 | 20:14.61 | 3:14.09 | 91111 | 105669
8 | 23:28.70 | 3:43.17 | 105670 | 122411
9 | 27:12.12 | 3:17.55 | 122412 | 137241
10 | 30:29.67 | 3:36.27 | 137242 | 153468
11 | 34:06.19 | 3:51.57 | 153469 | 170850
12 | 37:58.01 | 4:07.30 | 170851 | 189405
13 | 42:05.31 | 3:20.59 | 189406 | 204464
14 | 45:26.15 | 3:06.44 | 204465 | 218458
15 | 48:32.59 | 3:41.72 | 218459 | 235105
16 | 52:14.56 | 3:06.07 | 235106 | 249062
17 | 55:20.63 | 3:24.02 | 249063 | 264364
18 | 58:44.65 | 3:32.07 | 264365 | 280271
19 | 62:16.72 | 2:51.65 | 280272 | 293161
20 | 65:08.62 | 4:08.28 | 293162 | 311789
21 | 69:17.15 | 0:51.25 | 311790 | 315639
Range status and errors
Selected range
Filename C:\Users\Boris\Desktop\lossless-galaxy.ru\BeatlBaroq2\Peter Breiner and His Orchestra - Beatles Go Baroque 2.wav
Peak level 84.6 %
Extraction speed 8.1 X
Range quality 100.0 %
Test CRC C46A5B5E
Copy CRC C46A5B5E
Copy OK
No errors occurred
AccurateRip summary
Track 1 not present in database
Track 2 not present in database
Track 3 not present in database
Track 4 not present in database
Track 5 not present in database
Track 6 not present in database
Track 7 not present in database
Track 8 not present in database
Track 9 not present in database
Track 10 not present in database
Track 11 not present in database
Track 12 not present in database
Track 13 not present in database
Track 14 not present in database
Track 15 not present in database
Track 16 not present in database
Track 17 not present in database
Track 18 not present in database
Track 19 not present in database
Track 20 not present in database
Track 21 not present in database
None of the tracks are present in the AccurateRip database
End of status report
---- CUETools DB Plugin V2.1.6
[CTDB TOCID: 4bamwhNhXXRRqFHZ_JcgMyDxDQw-] found
Submit result: 4bamwhNhXXRRqFHZ_JcgMyDxDQw- has been confirmed
Track | CTDB Status
1 | (2/2) Accurately ripped
2 | (2/2) Accurately ripped
3 | (2/2) Accurately ripped
4 | (2/2) Accurately ripped
5 | (2/2) Accurately ripped
6 | (2/2) Accurately ripped
7 | (2/2) Accurately ripped
8 | (2/2) Accurately ripped
9 | (2/2) Accurately ripped
10 | (2/2) Accurately ripped
11 | (2/2) Accurately ripped
12 | (2/2) Accurately ripped
13 | (2/2) Accurately ripped
14 | (2/2) Accurately ripped
15 | (2/2) Accurately ripped
16 | (2/2) Accurately ripped
17 | (2/2) Accurately ripped
18 | (2/2) Accurately ripped
19 | (2/2) Accurately ripped
20 | (2/2) Accurately ripped
21 | (2/2) Accurately ripped
==== Log checksum 04EBBAAE691B5D72946FBEDF2AE4B2A130704868EF950FEBB9FE50786D2C8D17 ====

Содержание индексной карты (.CUE)

REM GENRE Classical
REM DATE 2019
REM DISCID 23107015
REM COMMENT "ExactAudioCopy v1.1"
PERFORMER "Peter Breiner and His Orchestra"
TITLE "Beatles Go Baroque 2"
FILE "Peter Breiner and His Orchestra - Beatles Go Baroque 2.flac" WAVE
TRACK 01 AUDIO
TITLE "Johann Sebastian Bach Keyboard Concerto No 1, BWV 1052, Come Together"
PERFORMER "Peter Breiner and His Orchestra"
INDEX 01 00:00:00
TRACK 02 AUDIO
TITLE "Johann Sebastian Bach Keyboard Concerto No 1, BWV 1052, Blackbird"
PERFORMER "Peter Breiner and His Orchestra"
INDEX 00 02:57:23
INDEX 01 03:00:26
TRACK 03 AUDIO
TITLE "Johann Sebastian Bach Keyboard Concerto No 1, BWV 1052, Drive My Car"
PERFORMER "Peter Breiner and His Orchestra"
INDEX 00 07:44:59
INDEX 01 07:47:45
TRACK 04 AUDIO
TITLE "Johann Sebastian Bach Violin Concerto No 1, BWV 1041, I Want to Hold Your Hand"
PERFORMER "Peter Breiner and His Orchestra"
INDEX 00 10:54:54
INDEX 01 10:57:37
TRACK 05 AUDIO
TITLE "Johann Sebastian Bach Violin Concerto No 1, BWV 1041, Something"
PERFORMER "Peter Breiner and His Orchestra"
INDEX 00 13:56:02
INDEX 01 13:59:05
TRACK 06 AUDIO
TITLE "Johann Sebastian Bach Violin Concerto No 1, BWV 1041, Day Tripper"
PERFORMER "Peter Breiner and His Orchestra"
INDEX 00 17:23:41
INDEX 01 17:26:43
TRACK 07 AUDIO
TITLE "Johann Sebastian Bach branderburg Concerto No 2, BWV 1047, Nowhere Man"
PERFORMER "Peter Breiner and His Orchestra"
INDEX 00 20:12:02
INDEX 01 20:14:61
TRACK 08 AUDIO
TITLE "Johann Sebastian Bach branderburg Concerto No 2, BWV 1047, While My Guitar Ge..."
PERFORMER "Peter Breiner and His Orchestra"
INDEX 00 23:26:14
INDEX 01 23:28:70
TRACK 09 AUDIO
TITLE "Johann Sebastian Bach branderburg Concerto No 2, BWV 1047, Ob-La-Di, Ob-La-Da"
PERFORMER "Peter Breiner and His Orchestra"
INDEX 00 27:09:42
INDEX 01 27:12:12
TRACK 10 AUDIO
TITLE "AntonioVivaldi The Four Seasons, Op. 8, A Day in the Life (Spring I)"
PERFORMER "Peter Breiner and His Orchestra"
INDEX 00 30:27:01
INDEX 01 30:29:67
TRACK 11 AUDIO
TITLE "AntonioVivaldi The Four Seasons, Op. 8, Norwegian Wood (Spring III)"
PERFORMER "Peter Breiner and His Orchestra"
INDEX 00 34:03:36
INDEX 01 34:06:19
TRACK 12 AUDIO
TITLE "AntonioVivaldi The Four Seasons, Op. 8, Octopus's Garden (Autumn I)"
PERFORMER "Peter Breiner and His Orchestra"
INDEX 00 37:55:12
INDEX 01 37:58:01
TRACK 13 AUDIO
TITLE "AntonioVivaldi The Four Seasons, Op. 8, Because (Autumn II)"
PERFORMER "Peter Breiner and His Orchestra"
INDEX 00 42:02:51
INDEX 01 42:05:31
TRACK 14 AUDIO
TITLE "AntonioVivaldi The Four Seasons, Op. 8, Back in the U.S.S.R. (Winter I)"
PERFORMER "Peter Breiner and His Orchestra"
INDEX 00 45:23:48
INDEX 01 45:26:15
TRACK 15 AUDIO
TITLE "AntonioVivaldi The Four Seasons, Op. 8, Julia (Winter II)"
PERFORMER "Peter Breiner and His Orchestra"
INDEX 00 48:29:74
INDEX 01 48:32:59
TRACK 16 AUDIO
TITLE "AntonioVivaldi The Four Seasons, Op. 8, Get Back (Summer III)"
PERFORMER "Peter Breiner and His Orchestra"
INDEX 00 52:12:08
INDEX 01 52:14:56
TRACK 17 AUDIO
TITLE "Johann Sebastian Bach, Mass in B minor, BWV 232, Here There and Everywhere (K..."
PERFORMER "Peter Breiner and His Orchestra"
INDEX 00 55:18:02
INDEX 01 55:20:63
TRACK 18 AUDIO
TITLE "Johann Sebastian Bach, Mass in B minor, BWV 232, Yesterday (Et in terra pax)"
PERFORMER "Peter Breiner and His Orchestra"
INDEX 00 58:42:05
INDEX 01 58:44:65
TRACK 19 AUDIO
TITLE "Johann Sebastian Bach, Mass in B minor, BWV 232, Hello Goodbye (Et resurrexit)"
PERFORMER "Peter Breiner and His Orchestra"
INDEX 00 62:14:07
INDEX 01 62:16:72
TRACK 20 AUDIO
TITLE "The Beatles Abbey Road Medley(attacca), Golden Slumbers, Carry That Weight, T..."
PERFORMER "Peter Breiner and His Orchestra"
INDEX 00 65:05:40
INDEX 01 65:08:62
TRACK 21 AUDIO
TITLE "Johann Sebastian Bach, Brandenburg ConcertoNo 3,BWV 1048, Her Majesty"
PERFORMER "Peter Breiner and His Orchestra"
INDEX 00 69:14:20
INDEX 01 69:17:15

Об исполнителе (группе)

Peter Breiner - родился 3.07.1957 в Humenné, в бывшей Чехословакии, ныне Словакия - пианист, дирижёр и композитор. Breiner начал играть и изучать фортепиано в возрасте четырёх лет. В девять лет он начал учиться в консерватории в Кошице, Словакия (где он изучал фортепиано, перкуссию, композицию и дирижирование). Впоследствии он переехал в Братиславу, Словакия, где он посещал Академию исполнительских искусств, продолжая обучение. Окончил Академию в 1982 году.
Peter Breiner один из самых записываемых классических музыкантов в мире, выпустивший более 200 альбомов в качестве дирижёра, пианиста, аранжировщика и композитора. Breiner снискал заслуженный успех по всему миру, дирижируя такими ансамблями, как Royal Philharmonic Orchestra, Bournemouth Symphony Orchestra, New Zealand Symphony Orchestra, Slovak Philharmonic Orchestra и Hong Kong Philharmonic, часто совмещая палочку дирижера с клавишами фортепиано.

Об альбоме (сборнике)

Классические музыканты всегда признавали необычайную музыкальность и оригинальность песен The Beatles. Тандем Lennon-McCartney американский композитор, пианист, дирижёр Leonard Bernstein назвал "Шубертами нашего времени". Beatles Go Baroque 2 - это продолжение мультиплатинового Beatles Go Baroque, вышедшего в далеком 1993. Peter Breiner сохраняя оригинальную концепцию шедевров XVIII века, таких как "Четыре сезона" Вивальди и знаменитого скрипичного концерт Баха No 1, элегантно сочетает их с мелодиями The Beatles. Классические мелодии переплетаясь с песенным наследием Beatles создают причудливое музыкальное кружево, которое по достоинству оценят и любители классики и фанаты Ливерпульской четверки.
Профиль [ЛС]
Показать сообщения:    

Текущее время: 20-Окт 02:51

Часовой пояс: UTC ± 0



Вы не можете начинать темы
Вы не можете отвечать на сообщения
Вы не можете редактировать свои сообщения
Вы не можете удалять свои сообщения
Вы не можете голосовать в опросах
Вы не можете прикреплять файлы к сообщениям
Вы не можете скачивать файлы