Статистика раздачи
Скачал: [ 1 ]
 
     
 
 

MAGNAT ®

Пол:
Мужской
Стаж:
2 года 9 месяцев
Сообщений:
13876

Откуда: Москва

Andrea Bocelli / Love In Portofino
Жанр: Pop, Classical, Stage & Screen
Страна-производитель диска: Italy (Made in E. U.)
Год издания диска: 2013
Издатель (лейбл): Sugar Music, Universal
Номер по каталогу: 3756198
Страна: Italy
Аудиокодек: FLAC
Тип рипа: image+.cue
Битрейт аудио: lossless
Продолжительность: 56:26
Источник: собственный рип
Наличие сканов в содержимом раздачи: да
Треклист:
1 Love In Portofino
2 A Mano A Mano
3 When I Fall In Love - Featuring – Chris Botti
4 Champán
5 Love Me Tender
6 Quizás, Quizás, Quizás - Featuring [Duet With] – Jennifer Lopez
7 Las Hojas Muertas (Autumn Leaves)
Featuring – Veronica Berti
8 L'Appuntamento (Sentado A 'Beira Do Caminho) - Clavinet [Klaviet] – Andrea Bocelli
9 Senza Fine - Featuring [Contains Excerpts Performed By] – Edith Piaf
10 La Vie En Rose
Live From Portofino
11 Sarà Settembre (September Morn)
12 Qualche Stupido "Ti Amo" (Somethin' Stupid) - Featuring – Veronica Berti
13 Era Già Tutto Previsto
14 Tristeza
15 Roma Nun Fa' La Stupida Stasera

Лог создания рипа

Exact Audio Copy V1.3 from 2. September 2016
EAC extraction logfile from 14. September 2019, 16:59
Andrea Bocelli / Love In Portofino
Used drive : Lenovo Slim_USB_Burner Adapter: 1 ID: 0
Read mode : Secure
Utilize accurate stream : Yes
Defeat audio cache : Yes
Make use of C2 pointers : No
Read offset correction : 6
Overread into Lead-In and Lead-Out : No
Fill up missing offset samples with silence : Yes
Delete leading and trailing silent blocks : No
Null samples used in CRC calculations : Yes
Used interface : Native Win32 interface for Win NT & 2000
Used output format : User Defined Encoder
Selected bitrate : 128 kBit/s
Quality : High
Add ID3 tag : No
Command line compressor : C:\Program Files (x86)\Exact Audio Copy\FLAC\FLAC.EXE
Additional command line options : -V -8 -T "Date=%year%" -T "Genre=%genre%" %source%
TOC of the extracted CD
Track | Start | Length | Start sector | End sector
---------------------------------------------------------
1 | 0:00.00 | 3:00.59 | 0 | 13558
2 | 3:00.59 | 4:19.26 | 13559 | 33009
3 | 7:20.10 | 4:42.29 | 33010 | 54188
4 | 12:02.39 | 3:48.26 | 54189 | 71314
5 | 15:50.65 | 3:52.34 | 71315 | 88748
6 | 19:43.24 | 3:16.12 | 88749 | 103460
7 | 22:59.36 | 4:47.28 | 103461 | 125013
8 | 27:46.64 | 4:08.73 | 125014 | 143686
9 | 31:55.62 | 3:17.73 | 143687 | 158534
10 | 35:13.60 | 3:07.52 | 158535 | 172611
11 | 38:21.37 | 3:45.02 | 172612 | 189488
12 | 42:06.39 | 2:44.71 | 189489 | 201859
13 | 44:51.35 | 3:49.12 | 201860 | 219046
14 | 48:40.47 | 3:31.35 | 219047 | 234906
15 | 52:12.07 | 4:13.58 | 234907 | 253939
Range status and errors
Selected range
Filename F:\музыка\lossless\Andrea Bocelli\Andrea Bocelli\Andrea Bocelli - Love In Portofino.wav
Peak level 100.0 %
Extraction speed 1.9 X
Range quality 100.0 %
Test CRC 0D32313B
Copy CRC 0D32313B
Copy OK
No errors occurred
AccurateRip summary
Track 1 accurately ripped (confidence 8) [EC001306] (AR v2)
Track 2 accurately ripped (confidence 8) [2BAEEB2F] (AR v2)
Track 3 accurately ripped (confidence 8) [2691E2A5] (AR v2)
Track 4 accurately ripped (confidence 8) [3A57F23A] (AR v2)
Track 5 accurately ripped (confidence 8) [FBAF7B8D] (AR v2)
Track 6 accurately ripped (confidence 8) [5BE555BF] (AR v2)
Track 7 accurately ripped (confidence 8) [075C94E8] (AR v2)
Track 8 accurately ripped (confidence 8) [402AE0F4] (AR v2)
Track 9 accurately ripped (confidence 8) [47E06D53] (AR v2)
Track 10 accurately ripped (confidence 8) [3DD2A003] (AR v2)
Track 11 accurately ripped (confidence 8) [9BCFA702] (AR v2)
Track 12 accurately ripped (confidence 8) [F49A19AD] (AR v2)
Track 13 accurately ripped (confidence 8) [43DFB0E7] (AR v2)
Track 14 accurately ripped (confidence 8) [122B4EAA] (AR v2)
Track 15 accurately ripped (confidence 8) [A3326D3B] (AR v2)
All tracks accurately ripped
End of status report
---- CUETools DB Plugin V2.1.6
[CTDB TOCID: isGpjCash8tgAmOGNrnNU5CGl7I-] found
Submit result: isGpjCash8tgAmOGNrnNU5CGl7I- has been confirmed
Track | CTDB Status
1 | (19/19) Accurately ripped
2 | (19/19) Accurately ripped
3 | (19/19) Accurately ripped
4 | (19/19) Accurately ripped
5 | (19/19) Accurately ripped
6 | (19/19) Accurately ripped
7 | (19/19) Accurately ripped
8 | (19/19) Accurately ripped
9 | (19/19) Accurately ripped
10 | (19/19) Accurately ripped
11 | (19/19) Accurately ripped
12 | (19/19) Accurately ripped
13 | (19/19) Accurately ripped
14 | (19/19) Accurately ripped
15 | (19/19) Accurately ripped
==== Log checksum 327B7C3CD8690EA35A81DE75054FC770A253E83016B5718C835DB16D3CBF3ED9 ====
Доп. информация: Куплен на ebay

Об альбоме (сборнике)

Двухдисковое издание: первый аудио диск, второй DVD. Публикую аудио диск.
Профиль [ЛС]
Показать сообщения:    

Текущее время: 24-Янв 19:49

Часовой пояс: UTC + 3



Вы не можете начинать темы
Вы не можете отвечать на сообщения
Вы не можете редактировать свои сообщения
Вы не можете удалять свои сообщения
Вы не можете голосовать в опросах
Вы не можете прикреплять файлы к сообщениям
Вы не можете скачивать файлы