Статистика раздачи
Размер:  1,46 GB   |    Зарегистрирован:  2 месяца 1 день   |    Скачан:  0 раз
DL-List: Нет

Полного источника не было: Никогда

 
     
 
 

MAGNAT ®

Пол:
Мужской
Стаж:
1 год 2 месяца
Сообщений:
7949

Четыре мушкетера / 4 мушкетера / The Four Musketeers
«What could be better than The Three Musketeers?»
Страна: Испания, Панама
Жанр: Приключения
Год выпуска: 1974
Продолжительность: 01:46:38
Перевод: Авторский (одноголосый закадровый) Александр Кашкин
Субтитры: нет
Режиссер: Ричард Лестер / Richard Lester
В ролях: Оливер Рид, Рэкел Уэлч, Ричард Чемберлен, Майкл Йорк, Фрэнк Финлей, Кристофер Ли,
Джеральдин Чаплин, Жан-Пьер Кассель, Рой Киннер, Майкл Гозард
Описание: Королевские мушкетеры Д`Артаньян, Атос, Портос и Арамис — отнюдь не святые. Вино,
женщины и тугой кошелек порой заставляют забыть о долге. Но о чести — никогда! Пока старые
друзья вместе, любые происки коварных агентов кардинала будут разбиты, ведь девиз
мушкетеров — «Один за всех и все за одного!»
Качество видео: BDRip
Формат видео: AVI
Видео: XviD build 64, 688x384 (1.79:1), 24 fps, 1759 kbps avg, 0.28 bit/pixel
Аудио: AC3 Dolby Digital, 48000Hz 2/0 (L,R) ch (mono), 192 kbps avg

MediaInfo

Четыре мушкетера (The Four Musketeers) [by ale_x2008].avi
Format : AVI
Format/Info : Audio Video Interleave
File size : 1.46 GiB
Duration : 1 h 46 min
Overall bit rate : 1 961 kb/s
Video
ID : 0
Format : MPEG-4 Visual
Format profile : Advanced Simple@L5
Format settings : BVOP2 / Custom Matrix
Format settings, BVOP : 2
Format settings, QPel : No
Format settings, GMC : No warppoints
Format settings, Matrix : Custom
Codec ID : XVID
Codec ID/Hint : XviD
Duration : 1 h 46 min
Bit rate : 1 760 kb/s
Width : 688 pixels
Height : 384 pixels
Display aspect ratio : 16:9
Frame rate : 24.000 FPS
Color space : YUV
Chroma subsampling : 4:2:0
Bit depth : 8 bits
Scan type : Progressive
Compression mode : Lossy
Bits/(Pixel*Frame) : 0.278
Stream size : 1.31 GiB (90%)
Writing library : XviD 64
Audio
ID : 1
Format : AC-3
Format/Info : Audio Coding 3
Codec ID : 2000
Duration : 1 h 46 min
Bit rate mode : Constant
Bit rate : 192 kb/s
Channel(s) : 2 channels
Channel positions : Front: L R
Sampling rate : 48.0 kHz
Frame rate : 31.250 FPS (1536 SPF)
Bit depth : 16 bits
Compression mode : Lossy
Stream size : 146 MiB (10%)
Alignment : Split accross interleaves
Interleave, duration : 42 ms (1.00 video frame)
Interleave, preload duratio : 500 ms
Service kind : Complete Main

Скриншоты


[cybertorrent.ru].t14951.torrent 
Торрент: Зарегистрирован [ 2020-04-04 09:35 ] · 98A398D9D198DA32007E3C33EBD2814C2815DC40

Скачать .torrent

Скачать

15 KB

Статус: проверено
Скачан: 0 раз
Размер: 1,46 GB  ·  Тип торрента
terms.php
Профиль [ЛС]
Показать сообщения:    

Текущее время: 05-Июн 13:32

Часовой пояс: UTC ± 0



Вы не можете начинать темы
Вы не можете отвечать на сообщения
Вы не можете редактировать свои сообщения
Вы не можете удалять свои сообщения
Вы не можете голосовать в опросах
Вы не можете прикреплять файлы к сообщениям
Вы можете скачивать файлы