Статистика раздачи
Размер:  921 MB   |    Зарегистрирован:  2 месяца 25 дней   |    Скачан:  0 раз
DL-List: Нет

Полного источника не было: Никогда

 
     
 
 

MAGNAT ®

Пол:
Мужской
Стаж:
1 год 3 месяца
Сообщений:
8775

Скуби Ду! Нападение Марсо Пса / Scooby-Doo! Mecha Mutt Menace
Страна: США
Жанр: Мультипликация
Продолжительность: 00:21:41
Год выпуска: 2013
Перевод: Профессиональный (дублированный)
Русские субтитры: есть-Режиссёр: Виктор Кук / Victor Cook
Роли озвучивали: Джули Боуэн, Лейси Чаберт, Минди Кон, Грэй Гриффин, Фил ЛаМарр, Мэттью Лиллард, Алан Рачинс, Пол Рубенс, Фрэнк Уэлкер-Описание: Команде придется сразиться с Марсо Псом, революционным луноходом на радиоуправлении.-Качество: HDTVRip 1080
Формат: MKV
Видео: AVC, 1920x1080 (16:9), 25.000 fps, 5 556 kb/s (0.107 bit/pixel)
Аудио 1: AC-3, 48.0 kHz, 2 ch, 192 kb/s, CBR (Russian)
Аудио 2: AC-3, 48.0 kHz, 2 ch, 192 kb/s, CBR (English)
Субтитры: Russian, English
Семпл: Забираем тут

Подробные технические данные

General
Unique ID : 180463757175301812738835662186119588458 (0x87C40E2D84AEFF2CA96C60E982AA6A6A)
Complete name : Scooby-Doo! Mecha Mutt Menace HDTVRip 1080.mkv
Format : Matroska
Format version : Version 4
File size : 921 MiB
Duration : 21 min 41 s
Overall bit rate : 5 940 kb/s
Encoded date : UTC 2019-07-03 13:55:15
Writing application : mkvmerge v15.0.0 ('Duel with the Devil') 64-bit
Writing library : libebml v1.3.5 + libmatroska v1.4.5
Video
ID : 1
Format : AVC
Format/Info : Advanced Video Codec
Format profile : High@L4.1
Format settings : CABAC / 4 Ref Frames
Format settings, CABAC : Yes
Format settings, ReFrames : 4 frames
Codec ID : V_MPEG4/ISO/AVC
Duration : 21 min 40 s
Bit rate : 5 556 kb/s
Width : 1 920 pixels
Height : 1 080 pixels
Display aspect ratio : 16:9
Frame rate mode : Constant
Frame rate : 25.000 FPS
Color space : YUV
Chroma subsampling : 4:2:0
Bit depth : 8 bits
Scan type : Progressive
Bits/(Pixel*Frame) : 0.107
Stream size : 861 MiB (93%)
Writing library : x264 core 146 r2538 121396c
Encoding settings : cabac=1 / ref=4 / deblock=1:0:0 / analyse=0x3:0x133 / me=umh / subme=10 / psy=1 / psy_rd=1.00:0.00 / mixed_ref=1 / me_range=32 / chroma_me=1 / trellis=2 / 8x8dct=1 / cqm=0 / deadzone=21,11 / fast_pskip=0 / chroma_qp_offset=-2 / threads=6 / lookahead_threads=1 / sliced_threads=0 / nr=0 / decimate=0 / interlaced=0 / bluray_compat=0 / constrained_intra=0 / bframes=4 / b_pyramid=2 / b_adapt=2 / b_bias=0 / direct=3 / weightb=1 / open_gop=0 / weightp=2 / keyint=250 / keyint_min=25 / scenecut=40 / intra_refresh=0 / rc_lookahead=40 / rc=2pass / mbtree=1 / bitrate=5556 / ratetol=1.0 / qcomp=0.60 / qpmin=0 / qpmax=69 / qpstep=4 / cplxblur=20.0 / qblur=0.5 / ip_ratio=1.40 / aq=1:0.80
Language : English
Default : Yes
Forced : No
Audio #1
ID : 2
Format : AC-3
Format/Info : Audio Coding 3
Commercial name : Dolby Digital
Codec ID : A_AC3
Duration : 21 min 40 s
Bit rate mode : Constant
Bit rate : 192 kb/s
Channel(s) : 2 channels
Channel layout : L R
Sampling rate : 48.0 kHz
Frame rate : 31.250 FPS (1536 SPF)
Bit depth : 16 bits
Compression mode : Lossy
Stream size : 29.8 MiB (3%)
Language : Russian
Service kind : Complete Main
Default : No
Forced : No
Audio #2
ID : 3
Format : AC-3
Format/Info : Audio Coding 3
Commercial name : Dolby Digital
Codec ID : A_AC3
Duration : 21 min 40 s
Bit rate mode : Constant
Bit rate : 192 kb/s
Channel(s) : 2 channels
Channel layout : L R
Sampling rate : 48.0 kHz
Frame rate : 31.250 FPS (1536 SPF)
Bit depth : 16 bits
Compression mode : Lossy
Stream size : 29.8 MiB (3%)
Language : English
Service kind : Complete Main
Default : No
Forced : No
Text #1
ID : 4
Format : UTF-8
Codec ID : S_TEXT/UTF8
Codec ID/Info : UTF-8 Plain Text
Duration : 21 min 19 s
Bit rate : 110 b/s
Count of elements : 272
Stream size : 17.3 KiB (0%)
Language : Russian
Default : No
Forced : No
Text #2
ID : 5
Format : UTF-8
Codec ID : S_TEXT/UTF8
Codec ID/Info : UTF-8 Plain Text
Duration : 21 min 17 s
Bit rate : 82 b/s
Count of elements : 345
Stream size : 12.8 KiB (0%)
Language : English
Default : No
Forced : No

Скриншоты


[cybertorrent.ru].t15199.torrent 
Торрент: Зарегистрирован [ 2020-04-07 18:29 ] · 8D825F67F782EC9A6E104CA3F956FA9283219995

Скачать .torrent

Скачать

18 KB

Статус: проверено
Скачан: 0 раз
Размер: 921 MB  ·  Тип торрента
terms.php
Профиль [ЛС]
Показать сообщения:    

Текущее время: 03-Июл 16:11

Часовой пояс: UTC ± 0



Вы не можете начинать темы
Вы не можете отвечать на сообщения
Вы не можете редактировать свои сообщения
Вы не можете удалять свои сообщения
Вы не можете голосовать в опросах
Вы не можете прикреплять файлы к сообщениям
Вы можете скачивать файлы