Статистика раздачи
Размер:  240 MB   |    Зарегистрирован:  3 месяца   |    Скачан:  0 раз
DL-List: Нет

Полного источника не было: Никогда

 
     
 
 

MAGNAT ®

Пол:
Мужской
Стаж:
1 год 3 месяца
Сообщений:
8784

Зог : Zog Год выпуска: 2018
Страна: Великобритания
Жанр: мультфильм, короткометражка
Продолжительность: 00:26:21
Перевод: Профессиональный (Дублированный) - Озвучено по заказу АО "Первый канал. Всемирная сеть"
русские субтитры: нет-Режиссёр: Макс Лэнг / Max Lang, Даниель Снэддон / Daniel Snaddon-Роли озвучивали: Кит Харингтон, Хью Скиннер, Роб Брайдон, Трейси Ульман, Ленни Генри, Пэтси Ферран, Эмма Тейт, Рокко Райт, Жасмин Харви, Фиби Макл-Описание: Трудолюбивый, но невезучий дракон обучается всем премудростям взрослой жизни и пытается заслужить золотую звездочку в Школе Драконов.-Качество: DVB
Формат: TS
Видео кодек: AVC
Аудио кодек: MPEG
Видео: 720x576, 25 fps, ~1050 kbps avg, 0.101 bit/pixel
Аудио: 48 kHz, 2 ch, ~160 kbps

MediaInfo

Общее
Идентификатор : 1 (0x1)
Полное имя : D:\Mult\Zog.2018.DVB.ts
Формат : MPEG-TS
Размер файла : 240 Мбайт
Продолжительность : 26 м. 21 с.
Режим общего битрейта : Переменный
Общий поток : 1275 Кбит/сек
Видео
Идентификатор : 208 (0xD0)
Идентификатор меню : 1 (0x1)
Формат : AVC
Формат/Информация : Advanced Video Codec
Профиль формата : High@L3
Настройки формата : CABAC / 4 Ref Frames
Параметр CABAC формата : Да
Параметр RefFrames формата : 4 кадра
Параметр GOP формата : M=4, N=28
Идентификатор кодека : 27
Продолжительность : 26 м. 21 с.
Битрейт : 1050 Кбит/сек
Ширина : 720 пикселей
Высота : 576 пикселей
Соотношение сторон : 16:9
Частота кадров : 25,000 кадров/сек
Стандарт вещания : Component
Цветовое пространство : YUV
Субдискретизация насыщенности : 4:2:0
Битовая глубина : 8 бит
Тип развёртки : Чересстрочная
Метод сохранения типа развёртки : Раздельные поля
Порядок развёртки : Верхнее поле первое
Бит/(Пиксели*Кадры) : 0.101
Размер потока : 198 Мбайт (82%)
Цветовой диапазон : Limited
Основные цвета : BT.601 PAL
Характеристики трансфера : BT.470 System B, BT.470 System G
Коэффициенты матрицы : BT.470 System B, BT.470 System G
Аудио
Идентификатор : 308 (0x134)
Идентификатор меню : 1 (0x1)
Формат : MPEG Audio
Версия формата : Version 1
Профиль формата : Layer 2
Идентификатор кодека : 3
Продолжительность : 26 м. 21 с.
Вид битрейта : Постоянный
Битрейт : 160 Кбит/сек
Каналы : 2 канала
Частота : 48,0 КГц
Частота кадров : 41,667 кадра/сек (1152 SPF)
Метод сжатия : С потерями
Размер потока : 30,2 Мбайт (13%)
Язык : Russian
[cybertorrent.ru].t15219.torrent 
Торрент: Зарегистрирован [ 2020-04-07 19:13 ] · 3D1A87A9428179F7C9EA86E0D390FD100896294A

Скачать .torrent

Скачать

19 KB

Статус: проверено
Скачан: 0 раз
Размер: 240 MB  ·  Тип торрента
terms.php
Профиль [ЛС]
Показать сообщения:    

Текущее время: 08-Июл 03:24

Часовой пояс: UTC ± 0



Вы не можете начинать темы
Вы не можете отвечать на сообщения
Вы не можете редактировать свои сообщения
Вы не можете удалять свои сообщения
Вы не можете голосовать в опросах
Вы не можете прикреплять файлы к сообщениям
Вы можете скачивать файлы