Статистика раздачи
Размер:  27 MB   |    Зарегистрирован:  3 месяца   |    Скачан:  0 раз
DL-List: Нет

Полного источника не было: Никогда

 
     
 
 

MAGNAT ®

Пол:
Мужской
Стаж:
1 год 3 месяца
Сообщений:
8784

Страусиная политика / The Ostrich politic
Страна: Франция
Жанр: мультфильм для взрослых, сатира
Продолжительность: 00:06:25
Год выпуска: 2018
Перевод: субтитры (alex.n42)
Русские субтитры: есть
Режиссёр: Мохаммад Хоухоу / Mohammad Houhou
Текст читает: Кестер Лавлэйс / Kester Lovelace
Описание: Сатирический фильм о государстве страусов. Однажды население ставят в известность, что склонность прятать голову в песок, до сих пор считавшаяся основой их общества, на самом деле - вымышленная особенность. Страусам нелегко перенести такой "разрыв шаблона"...
Доп. информация: Grand Prix du Jury - Festival Tournez Jeunesse (2019)
Качество: WEBRip
Формат: MP4
Видео: 465 kbps, 1280х720 (16:9), 25.000 fps, AVC (Main@L3.1)
Аудио: eng, 128 kbps, 44.1 kHz, 2 channels, AAC (LC)
Субтитры: softsub (SRT)

Подробные технические данные

General
Complete name : The Ostrich politic (2018).mp4
Format : MPEG-4
Format profile : Base Media / Version 2
Codec ID : mp42
File size : 27.4 MiB
Duration : 6mn 25s
Overall bit rate mode : Variable
Overall bit rate : 596 Kbps
Encoded date : UTC 2018-11-15 13:57:50
Tagged date : UTC 2018-11-15 13:57:50
gsst : 0
gstd : 385729
Video
ID : 1
Format : AVC
Format/Info : Advanced Video Codec
Format profile : Main@L3.1
Format settings, CABAC : Yes
Format settings, ReFrames : 3 frames
Codec ID : avc1
Codec ID/Info : Advanced Video Coding
Duration : 6mn 25s
Bit rate : 465 Kbps
Width : 1 280 pixels
Height : 720 pixels
Display aspect ratio : 16:9
Frame rate mode : Constant
Frame rate : 25.000 fps
Color space : YUV
Chroma subsampling : 4:2:0
Bit depth : 8 bits
Scan type : Progressive
Bits/(Pixel*Frame) : 0.020
Stream size : 21.4 MiB (78%)
Title : ISO Media file produced by Google Inc. Created on: 11/15/2018.
Encoded date : UTC 2018-11-15 13:57:50
Tagged date : UTC 2018-11-15 13:57:50
Color primaries : BT.709
Transfer characteristics : BT.709
Matrix coefficients : BT.709
Audio
ID : 2
Format : AAC
Format/Info : Advanced Audio Codec
Format profile : LC
Codec ID : 40
Duration : 6mn 25s
Bit rate mode : Variable
Bit rate : 128 Kbps
Channel(s) : 2 channels
Channel positions : Front: L R
Sampling rate : 44.1 KHz
Compression mode : Lossy
Stream size : 5.89 MiB (21%)
Title : ISO Media file produced by Google Inc. Created on: 11/15/2018.
Language : English
Encoded date : UTC 2018-11-15 13:57:50
Tagged date : UTC 2018-11-15 13:57:50

Скриншоты

Пример субтитров

1
00:00:03,400 --> 00:00:05,800
Это наше счастье.
2
00:00:09,020 --> 00:00:11,630
Удача во всём, что значимо.
3
00:00:13,050 --> 00:00:14,510
У каждого есть своя.
4
00:00:15,000 --> 00:00:16,280
Хоть символически.
5
00:00:19,000 --> 00:00:20,110
Мы никого не осуждаем.
6
00:00:21,100 --> 00:00:22,600
Наша деловая жизнь быстрая,
7
00:00:22,750 --> 00:00:24,510
нет времени для сомнений
8
00:00:25,280 --> 00:00:27,100
в погоне за мечтой,
9
00:00:27,630 --> 00:00:30,670
где перерывы длятся не более 16 капель.
10
00:00:30,820 --> 00:00:32,000
Итак, слава!
11
00:00:32,340 --> 00:00:34,960
Слава трудолюбивому рою.
12
00:00:35,330 --> 00:00:37,700
Слава прогрессирующей нации.
13
00:00:38,100 --> 00:00:40,280
Слава каждому новорожденному.
14
00:00:40,500 --> 00:00:43,140
Слава Отцу всего сущего.
15
00:00:43,530 --> 00:00:45,780
Слава тем, кто в форме.
[cybertorrent.ru].t15228.torrent 
Торрент: Зарегистрирован [ 2020-04-07 19:19 ] · F4C44086C45E625233DA1849E9D8A7640A2BA3B6

Скачать .torrent

Скачать

18 KB

Статус: проверено
Скачан: 0 раз
Размер: 27 MB  ·  Тип торрента
terms.php
Профиль [ЛС]
Показать сообщения:    

Текущее время: 08-Июл 03:40

Часовой пояс: UTC ± 0



Вы не можете начинать темы
Вы не можете отвечать на сообщения
Вы не можете редактировать свои сообщения
Вы не можете удалять свои сообщения
Вы не можете голосовать в опросах
Вы не можете прикреплять файлы к сообщениям
Вы можете скачивать файлы