Статистика раздачи
Размер:  132 MB   |    Зарегистрирован:  3 месяца   |    Скачан:  0 раз
DL-List: Нет

Полного источника не было: Никогда

 
     
 
 

MAGNAT ®

Пол:
Мужской
Стаж:
1 год 3 месяца
Сообщений:
8784

У гончара / U hrnčíře
Страна: Чехословакия
Жанр: мультфильм
Продолжительность: 00:10:04
Год выпуска: 1976
Перевод: не требуется
Русские субтитры: нет
Режиссёр: Людвик Кадлечек / Ludvík Kadleček
Описание: Весёлая история про двух пластилиновых человечков, которые играли в прятки и случайно разбили вазу. Хозяйка выгнала их из дома, и они отправились к гончару...
Качество: TVRip
Формат: AVI
Видео: 1695 kbps, 576х432 (4:3), 25.000 fps, MPEG-4 (Simple@L4)
Аудио: 128 kbps, 44.1 kHz, 2 channels, MPEG Audio (MP3)
Субтитры: отсутствуют

Подробные технические данные

General
Complete name : U hrncire (1976).avi
Format : AVI
Format/Info : Audio Video Interleave
File size : 132 MiB
Duration : 10mn 4s
Overall bit rate : 1 832 Kbps
Writing application : VirtualDubMod 1.5.10.2 (build 2540/release)
Writing library : VirtualDub build 35491/release
Video
ID : 0
Format : MPEG-4 Visual
Format profile : Advanced Simple@L4
Format settings, BVOP : 2
Format settings, QPel : No
Format settings, GMC : No warppoints
Format settings, Matrix : Default (H.263)
Codec ID : XVID
Codec ID/Hint : XviD
Duration : 10mn 4s
Bit rate : 1 695 Kbps
Width : 576 pixels
Height : 432 pixels
Display aspect ratio : 4:3
Frame rate : 25.000 fps
Color space : YUV
Chroma subsampling : 4:2:0
Bit depth : 8 bits
Scan type : Progressive
Compression mode : Lossy
Bits/(Pixel*Frame) : 0.272
Stream size : 122 MiB (92%)
Writing library : XviD 73
Audio
ID : 1
Format : MPEG Audio
Format version : Version 1
Format profile : Layer 3
Codec ID : 55
Codec ID/Hint : MP3
Duration : 10mn 4s
Bit rate mode : Constant
Bit rate : 128 Kbps
Channel(s) : 2 channels
Sampling rate : 44.1 KHz
Compression mode : Lossy
Stream size : 9.22 MiB (7%)
Alignment : Split accross interleaves
Interleave, duration : 40 ms (1.00 video frame)
Interleave, preload duration : 500 ms

Скриншоты

[cybertorrent.ru].t15231.torrent 
Торрент: Зарегистрирован [ 2020-04-07 19:21 ] · CCE109222C17C83F7F2E86B871B635A1D03B45DE

Скачать .torrent

Скачать

11 KB

Статус: проверено
Скачан: 0 раз
Размер: 132 MB  ·  Тип торрента
terms.php
Профиль [ЛС]
Показать сообщения:    

Текущее время: 08-Июл 04:28

Часовой пояс: UTC ± 0



Вы не можете начинать темы
Вы не можете отвечать на сообщения
Вы не можете редактировать свои сообщения
Вы не можете удалять свои сообщения
Вы не можете голосовать в опросах
Вы не можете прикреплять файлы к сообщениям
Вы можете скачивать файлы