Статистика раздачи
Размер:  1,34 GB   |    Зарегистрирован:  3 месяца   |    Скачан:  0 раз
DL-List: Нет

Полного источника не было: Никогда

 
     
 
 

MAGNAT ®

Пол:
Мужской
Стаж:
1 год 3 месяца
Сообщений:
8784

-Зеркало / Looking Glass-«Seeing is deceiving»- -Страна: Канада, США
Жанр: триллер
Год выпуска: 2018
Продолжительность: 01:43:39-Перевод: Профессиональный (многоголосый закадровый) iTunes
Субтитры: нет
Оригинальная аудиодорожка: нет-Режиссер: Тим Хантер / Tim Hunter-В ролях: Николас Кейдж, Робин Танни, Марк Блукас, Жак Грэй, Эрни Лайвли, Конуэй, Кимми Хименес, Билл Болендер, Барри Джей Минкофф, Джейсон К. Уиксом-Описание: Рэй с женой купили уединенный мотель в пустыне в надежде начать жизнь с чистого листа. Но мирная и размеренная жизнь постепенно начинает трещать по швам, когда Рэй обнаруживает двойное зеркало, через которое можно увидеть всё, что происходит в одном из номеров. И когда в мотеле пропадает постоялица, то подозрение падает на владельцев.-Качество видео: BDRip-AVC
Формат видео: MKV-Видео: MPEG-4 AVC, 960x540 (16:9), 23.976 fps, ~1628 kbps avg, 0.131 bit/pixel
Аудио: 48 kHz, AC3 Dolby Digital, 2/0 (L,R) ch, ~192 kbps avg-

MediaInfo

Код:
Complete name : D:\Раздача\Зеркало (2018) BDRip-AVC_ivanes.mkv
Format : Matroska
Format version : Version 2
File size : 1.34 GiB
Duration : 1 h 43 min
Overall bit rate : 1 857 kb/s
Movie name : Зеркало (2018) BDRip-AVC_ivanes
Encoded date : UTC 2020-04-06 19:24:17
Writing application : mkvmerge v4.4.0 ('Die Wiederkehr') сборка от Jan 3 2011 21:40:45
Writing library : libebml v1.0.0 + libmatroska v1.0.0
Cover : Yes
Attachments : cover.jpg
Video
ID : 1
Format : AVC
Format/Info : Advanced Video Codec
Format profile : High@L4.1
Format settings : CABAC / 12 Ref Frames
Format settings, CABAC : Yes
Format settings, Reference : 12 frames
Codec ID : V_MPEG4/ISO/AVC
Duration : 1 h 43 min
Bit rate : 1 628 kb/s
Width : 960 pixels
Height : 540 pixels
Display aspect ratio : 16:9
Frame rate mode : Constant
Frame rate : 23.976 (24000/1001) FPS
Color space : YUV
Chroma subsampling : 4:2:0
Bit depth : 8 bits
Scan type : Progressive
Bits/(Pixel*Frame) : 0.131
Stream size : 1.18 GiB (88%)
Title : Rip by ivanes
Writing library : x264 core 159 r2991 1771b55
Encoding settings : cabac=1 / ref=12 / deblock=1:-3:-3 / analyse=0x3:0x113 / me=umh / subme=10 / psy=1 / psy_rd=1.00:0.00 / mixed_ref=1 / me_range=32 / chroma_me=1 / trellis=2 / 8x8dct=1 / cqm=0 / deadzone=21,11 / fast_pskip=0 / chroma_qp_offset=-2 / threads=12 / lookahead_threads=3 / sliced_threads=0 / nr=0 / decimate=1 / interlaced=0 / bluray_compat=0 / constrained_intra=0 / bframes=12 / b_pyramid=2 / b_adapt=2 / b_bias=0 / direct=1 / weightb=1 / open_gop=0 / weightp=2 / keyint=240 / keyint_min=23 / scenecut=40 / intra_refresh=0 / rc_lookahead=60 / rc=crf / mbtree=1 / crf=17.0 / qcomp=0.60 / qpmin=0 / qpmax=69 / qpstep=4 / vbv_maxrate=50000 / vbv_bufsize=62500 / crf_max=0.0 / nal_hrd=none / filler=0 / ip_ratio=1.40 / aq=1:1.00
Default : Yes
Forced : No
Statistics Tags Issue : mkvmerge v29.0.0 ('Like It Or Not') 64-bit 2020-04-06 19:12:53 / mkvmerge v4.4.0 ('Die Wiederkehr') сборка от Jan 3 2011 21:40:45 2020-04-06 19:24:17
FromStats_BitRate : 1663237
FromStats_Duration : 01:43:38.671000000
FromStats_FrameCount : 149099
FromStats_StreamSize : 1292890656
Audio
ID : 2
Format : AC-3
Format/Info : Audio Coding 3
Commercial name : Dolby Digital
Codec ID : A_AC3
Duration : 1 h 43 min
Bit rate mode : Constant
Bit rate : 192 kb/s
Channel(s) : 2 channels
Channel layout : L R
Sampling rate : 48.0 kHz
Frame rate : 31.250 FPS (1536 SPF)
Compression mode : Lossy
Stream size : 142 MiB (10%)
Title : iTunes
Language : Russian
Service kind : Complete Main
Default : Yes
Forced : No

Скриншоты

[cybertorrent.ru].t15239.torrent 
Торрент: Зарегистрирован [ 2020-04-07 19:37 ] · 05FE97747E7D39ECF4E2360DECA33DE5D012D911

Скачать .torrent

Скачать

14 KB

Статус: проверено
Скачан: 0 раз
Размер: 1,34 GB  ·  Тип торрента
terms.php
Профиль [ЛС]
Показать сообщения:    

Текущее время: 08-Июл 05:29

Часовой пояс: UTC ± 0



Вы не можете начинать темы
Вы не можете отвечать на сообщения
Вы не можете редактировать свои сообщения
Вы не можете удалять свои сообщения
Вы не можете голосовать в опросах
Вы не можете прикреплять файлы к сообщениям
Вы можете скачивать файлы