Статистика раздачи
Нет
 
     
 
 

MAGNAT ®

Пол:
Мужской
Стаж:
2 года 6 месяцев
Сообщений:
11685

Откуда: Москва

Malone Sibun / Come Together
Жанр: Classic Rock | Blues Rock
Носитель: CD
Страна-производитель диска (релиза): Russia
Год издания: 2020
Издатель (лейбл): Redline Music
Номер по каталогу: RLB1816
Страна исполнителя (группы): USA
Аудиокодек: FLAC (*.flac)
Тип рипа: image+.cue
Продолжительность: 00:46:48
Источник: rd
Наличие сканов в содержимом раздачи: да
Треклист:
01. Come Together (4:29)
02. Let Me Love You (4:37)
03. I Want You Back (5:00)
04. Taste of Your Love (4:44)
05. Jodie (4:09)
06. So Tired of Living (6:30)
07. Love Light (4:14)
08. She’s My Girl (4:23)
09. Rabbit Hole (3:56)
10. Everyday’s A Miracle (4:47)

Лог создания рипа

Exact Audio Copy V1.1 from 23. June 2015
EAC extraction logfile from 7. March 2020, 18:07
Malone Sibun / Come Together (RLB1816)
Used drive : PIONEER BD-RW BDR-209D Adapter: 0 ID: 5
Read mode : Secure
Utilize accurate stream : Yes
Defeat audio cache : Yes
Make use of C2 pointers : No
Read offset correction : 667
Overread into Lead-In and Lead-Out : No
Fill up missing offset samples with silence : Yes
Delete leading and trailing silent blocks : No
Null samples used in CRC calculations : Yes
Used interface : Installed external ASPI interface
Used output format : User Defined Encoder
Selected bitrate : 768 kBit/s
Quality : High
Add ID3 tag : No
Command line compressor : C:\Program Files (x86)\Exact Audio Copy\FLAC\FLAC.EXE
Additional command line options : -6 -V -T "ARTIST=%artist%" -T "TITLE=%title%" -T "ALBUM=%albumtitle%" -T "DATE=%year%" -T "TRACKNUMBER=%tracknr%" -T "GENRE=%genre%" -T "COMMENT=%comment%" -T "BAND=%albuminterpret%" -T "ALBUMARTIST=%albuminterpret%" -T "COMPOSER=%composer%" %haslyrics%--tag-from-file=LYRICS="%lyricsfile%"%haslyrics% -T "DISCNUMBER=%cdnumber%" -T "TOTALDISCS=%totalcds%" -T "TOTALTRACKS=%numtracks%" %hascover%--picture="%coverfile%"%hascover% %source% -o %dest%
TOC of the extracted CD
Track | Start | Length | Start sector | End sector
---------------------------------------------------------
1 | 0:00.00 | 4:28.73 | 0 | 20172
2 | 4:28.73 | 4:37.01 | 20173 | 40948
3 | 9:05.74 | 5:00.37 | 40949 | 63485
4 | 14:06.36 | 4:43.65 | 63486 | 84775
5 | 18:50.26 | 4:09.18 | 84776 | 103468
6 | 22:59.44 | 6:29.70 | 103469 | 132713
7 | 29:29.39 | 4:13.42 | 132714 | 151730
8 | 33:43.06 | 4:22.43 | 151731 | 171423
9 | 38:05.49 | 3:55.43 | 171424 | 189091
10 | 42:01.17 | 4:46.57 | 189092 | 210598
Range status and errors
Selected range
Filename E:\MUSIC\Malone Sibun - Come Together (RLB1816).wav
Peak level 94.8 %
Extraction speed 7.5 X
Range quality 100.0 %
Test CRC 3FA0E593
Copy CRC 3FA0E593
Copy OK
No errors occurred
AccurateRip summary
Track 1 not present in database
Track 2 not present in database
Track 3 not present in database
Track 4 not present in database
Track 5 not present in database
Track 6 not present in database
Track 7 not present in database
Track 8 not present in database
Track 9 not present in database
Track 10 not present in database
None of the tracks are present in the AccurateRip database
End of status report
==== Log checksum E9956547E9B3E7096179E7D6D40E69A4555A743D84FEC872F27696331602B308 ====

Содержание индексной карты (.CUE)

REM GENRE "Blues Rock"
REM DATE 2020
REM DISCID 7B0AF70A
REM COMMENT "ExactAudioCopy v1.1"
PERFORMER "Malone Sibun"
TITLE "Come Together (RLB1816)"
FILE "Malone Sibun - Come Together (RLB1816).flac" WAVE
TRACK 01 AUDIO
TITLE "Come Together"
PERFORMER "Malone Sibun"
INDEX 01 00:00:00
TRACK 02 AUDIO
TITLE "Let Me Love You"
PERFORMER "Malone Sibun"
INDEX 01 04:28:73
TRACK 03 AUDIO
TITLE "I Want You Back"
PERFORMER "Malone Sibun"
INDEX 01 09:05:74
TRACK 04 AUDIO
TITLE "Taste of Your Love"
PERFORMER "Malone Sibun"
INDEX 01 14:06:36
TRACK 05 AUDIO
TITLE "Jodie"
PERFORMER "Malone Sibun"
INDEX 01 18:50:26
TRACK 06 AUDIO
TITLE "So Tired of Living"
PERFORMER "Malone Sibun"
INDEX 01 22:59:44
TRACK 07 AUDIO
TITLE "Love Light"
PERFORMER "Malone Sibun"
INDEX 01 29:29:39
TRACK 08 AUDIO
TITLE "She’s My Girl"
PERFORMER "Malone Sibun"
INDEX 01 33:43:06
TRACK 09 AUDIO
TITLE "Rabbit Hole"
PERFORMER "Malone Sibun"
INDEX 01 38:05:49
TRACK 10 AUDIO
TITLE "Everyday’s A Miracle"
PERFORMER "Malone Sibun"
INDEX 01 42:01:17

Лог проверки качества

-----------------------
DON'T MODIFY THIS FILE
-----------------------
PERFORMER: auCDtect Task Manager, ver. 1.6.0 RC1 build 1.6.0.1
Copyright (c) 2008-2010 y-soft. All rights reserved
http://y-soft.org
ANALYZER: auCDtect: CD records authenticity detector, version 0.8.2
Copyright (c) 2004 Oleg Berngardt. All rights reserved.
Copyright (c) 2004 Alexander Djourik. All rights reserved.
FILE: Malone Sibun - Come Together (RLB1816).flac
Size: 349902933 Hash: 41F27CB663AC6513DE36E045298FD718 Accuracy: -m0
Conclusion: MPEG 95%
Signature: D1904DF79447B4E2FC327144B0E3FD1DBB389528

Скриншот спектра частот

Лог DRM

foobar2000 1.2.9 / Dynamic Range Meter 1.1.1
log date: 2020-04-08 21:22:04
--------------------------------------------------------------------------------
Analyzed: Malone Sibun / Come Together (RLB1816)
--------------------------------------------------------------------------------
DR Peak RMS Duration Track
--------------------------------------------------------------------------------
DR5 -0.49 dB -7.20 dB 4:29 01-Come Together
DR5 -0.50 dB -6.46 dB 4:37 02-Let Me Love You
DR5 -0.49 dB -7.22 dB 5:00 03-I Want You Back
DR5 -0.50 dB -8.75 dB 4:44 04-Taste of Your Love
DR6 -0.50 dB -6.89 dB 4:09 05-Jodie
DR6 -0.46 dB -7.60 dB 6:30 06-So Tired of Living
DR5 -0.50 dB -6.51 dB 4:14 07-Love Light
DR5 -0.50 dB -6.70 dB 4:23 08-She’s My Girl
DR5 -0.50 dB -5.81 dB 3:56 09-Rabbit Hole
DR5 -0.50 dB -7.00 dB 4:47 10-Everyday’s A Miracle
--------------------------------------------------------------------------------
Number of tracks: 10
Official DR value: DR5
Samplerate: 44100 Hz
Channels: 2
Bits per sample: 16
Bitrate: 997 kbps
Codec: FLAC
================================================================================
Профиль [ЛС]
Показать сообщения:    

Текущее время: 19-Окт 00:18

Часовой пояс: UTC ± 0



Вы не можете начинать темы
Вы не можете отвечать на сообщения
Вы не можете редактировать свои сообщения
Вы не можете удалять свои сообщения
Вы не можете голосовать в опросах
Вы не можете прикреплять файлы к сообщениям
Вы не можете скачивать файлы