Статистика раздачи
Качаю: [ 1 ]
 
     
 
 

MAGNAT ®

Пол:
Мужской
Стаж:
2 года 8 месяцев
Сообщений:
13012

Откуда: Москва

Tesla - Five Man London Jam- Жанр: Acoustic Rock
Носитель: WEB
Год издания: 2020-03-27
Издатель-лейбл: Universal Music Enterprises
Страна исполнителя: USA
Аудиокодек: FLAC (*.flac)
Тип рипа: tracks
Битрейт аудио: lossless
Продолжительность: 01:06:11
Источник: интернет
Наличие сканов: нет

Треклист:
01. Cumin' Atcha Live / Truckin' (6:19)
02. Tied To The Tracks (4:01)
03. We Can Work It Out (2:21)
04. Signs (3:06)
05. What You Give (7:39)
06. California Summer Song (3:05)
07. Forever Loving You (4:06)
08. Miles Away (7:12)
09. Paradise (5:22)
10. Call It What You Want (4:36)
11. Stir It Up (5:55)
12. Into The Now (4:58)
13. Love Song (7:31)

auCDtect

CUE Corrector v. 8.3.6 / b. 968 (Mar. 14, 2020)
————————————————————————————————————————————————————————————————————————
Tesla / Five Man London Jam (Live At Abbey Road Studios, 6/12/19)
Folder: Tesla - 2020 - Five Man London Jam [FLAC]
Audio files:
01 Cumin' Atcha Live Truckin'.flac [06:18.653; FLAC • 1069 kbps • 16 bit \ 44100 Hz • stereo; 48,29 MB (50 637 217 B)]
02 Tied To The Tracks.flac [04:00.653; FLAC • 1039 kbps • 16 bit \ 44100 Hz • stereo; 29,81 MB (31 260 835 B)]
03 We Can Work It Out.flac [02:20.533; FLAC • 1164 kbps • 16 bit \ 44100 Hz • stereo; 19,52 MB (20 464 388 B)]
04 Signs.flac [03:05.867; FLAC • 1109 kbps • 16 bit \ 44100 Hz • stereo; 24,58 MB (25 775 725 B)]
05 What You Give.flac [07:39.320; FLAC • 1002 kbps • 16 bit \ 44100 Hz • stereo; 54,87 MB (57 538 068 B)]
06 California Summer Song.flac [03:04.573; FLAC • 1088 kbps • 16 bit \ 44100 Hz • stereo; 23,95 MB (25 111 459 B)]
07 Forever Loving You.flac [04:06.467; FLAC • 995 kbps • 16 bit \ 44100 Hz • stereo; 29,25 MB (30 673 893 B)]
08 Miles Away.flac [07:11.893; FLAC • 1043 kbps • 16 bit \ 44100 Hz • stereo; 53,75 MB (56 361 990 B)]
09 Paradise.flac [05:21.653; FLAC • 980 kbps • 16 bit \ 44100 Hz • stereo; 37,59 MB (39 417 069 B)]
10 Call It What You Want.flac [04:35.813; FLAC • 1056 kbps • 16 bit \ 44100 Hz • stereo; 34,75 MB (36 434 284 B)]
11 Stir It Up.flac [05:54.613; FLAC • 996 kbps • 16 bit \ 44100 Hz • stereo; 42,11 MB (44 156 161 B)]
12 Into The Now.flac [04:58.173; FLAC • 1062 kbps • 16 bit \ 44100 Hz • stereo; 37,76 MB (39 594 235 B)]
13 Love Song.flac [07:30.613; FLAC • 954 kbps • 16 bit \ 44100 Hz • stereo; 51,28 MB (53 766 176 B)]
Accuracy: -m3
File 01 Cumin' Atcha Live Truckin' - 100% CDDA [06:18:49]
File 02 Tied To The Tracks - 100% CDDA [04:00:49]
File 03 We Can Work It Out - 100% CDDA [02:20:40]
File 04 Signs - 100% CDDA [03:05:65]
File 05 What You Give - 100% CDDA [07:39:24]
File 06 California Summer Song - 100% CDDA [03:04:43]
File 07 Forever Loving You - 100% CDDA [04:06:35]
File 08 Miles Away - 100% CDDA [07:11:67]
File 09 Paradise - 100% CDDA [05:21:49]
File 10 Call It What You Want - 100% CDDA [04:35:61]
File 11 Stir It Up - 100% CDDA [05:54:46]
File 12 Into The Now - 100% CDDA [04:58:13]
File 13 Love Song - 100% CDDA [07:30:46]
————— Summary: —————
These tracks looks like CDDA with probability 100%.
————————————————————————————————————————————————————————————————————————
ANALYZER:
auCDtect: CD records authenticity detector, version 0.8.2
Copyright (c) 2004 Oleg Berngardt. All rights reserved.
Copyright (c) 2004 Alexander Djourik. All rights reserved.
Time elapsed: 50.6 s
Log created at March 27, 2020 05:30:21
=== E3E11FF22DCA75A8A3646EED8EB538F1F605744A9DFD1906CDB3B7149D929526 ===

CUETools

[CUETools log; Date: 27.03.2020 5:28:58; Version: 2.1.6]
[CTDB TOCID: ia_hkG5uFtJ1Zr0LHLJKpakrvzo-] disk not present in database.
[AccurateRip ID: 001db6b9-012c4a37-b60f800d] disk not present in database.
Track Peak [ CRC32 ] [W/O NULL]
-- 90,9 [5E469957] [87E69D7E]
01 89,5 [68F0AFD8] [37526B07]
02 90,2 [6A19A1B0] [2E81741E]
03 90,6 [C2DA4BD5] [F2DC694B]
04 90,4 [FA97A661] [D54B0E13]
05 90,1 [0D27A52D] [370B4C99]
06 90,8 [0C2369F5] [24E8848F]
07 90,9 [CD9F350C] [2AF5B65A]
08 89,7 [006F3E1C] [757B8D31]
09 89,7 [5BB47201] [E04EB716]
10 89,2 [97B6B3E6] [D5AF37B8]
11 90,6 [F16F87FF] [CA4DCF34]
12 90,8 [48B855D1] [2CF5DFD1]
13 89,3 [964DE95A] [4BAB5D40]

DR

foobar2000 1.5.1 / Замер динамического диапазона (DR) 1.1.1
Дата отчёта: 2020-03-27 05:28:01
--------------------------------------------------------------------------------
Анализ: Tesla / Five Man London Jam (Live At Abbey Road Studios, 6/12/19)
--------------------------------------------------------------------------------
DR Пики RMS Продолжительность трека
--------------------------------------------------------------------------------
DR8 -0.96 дБ -10.24 дБ 6:19 01-Cumin' Atcha Live / Truckin'
DR8 -0.89 дБ -10.27 дБ 4:01 02-Tied To The Tracks
DR8 -0.86 дБ -9.83 дБ 2:21 03-We Can Work It Out
DR8 -0.87 дБ -10.00 дБ 3:06 04-Signs
DR8 -0.90 дБ -11.10 дБ 7:39 05-What You Give
DR9 -0.83 дБ -10.36 дБ 3:05 06-California Summer Song
DR8 -0.82 дБ -11.01 дБ 4:06 07-Forever Loving You
DR8 -0.94 дБ -9.86 дБ 7:12 08-Miles Away
DR10 -0.94 дБ -12.27 дБ 5:22 09-Paradise
DR8 -0.98 дБ -9.66 дБ 4:36 10-Call It What You Want
DR8 -0.85 дБ -11.35 дБ 5:55 11-Stir It Up
DR8 -0.84 дБ -10.27 дБ 4:58 12-Into The Now
DR8 -0.98 дБ -11.51 дБ 7:31 13-Love Song
--------------------------------------------------------------------------------
Количество треков: 13
Реальные значения DR: DR8
Частота: 44100 Гц
Каналов: 2
Разрядность: 16
Битрейт: 942 кбит/с
Кодек: FLAC
================================================================================
Профиль [ЛС]
Показать сообщения:    

Текущее время: 01-Дек 02:42

Часовой пояс: UTC ± 0



Вы не можете начинать темы
Вы не можете отвечать на сообщения
Вы не можете редактировать свои сообщения
Вы не можете удалять свои сообщения
Вы не можете голосовать в опросах
Вы не можете прикреплять файлы к сообщениям
Вы не можете скачивать файлы