Статистика раздачи
Нет
 
     
 
 

MAGNAT ®

Пол:
Мужской
Стаж:
2 года 6 месяцев
Сообщений:
11685

Откуда: Москва

Shakra - Mad World
Жанр: Hard Rock
Носитель: CD
Страна-производитель диска (релиза): Russia
Год издания: 2020
Издатель (лейбл): Фоно
Номер по каталогу: FO1546CD
Страна исполнителя (группы): Switzerland
Аудиокодек: FLAC (*.flac)
Тип рипа: image+.cue
Продолжительность: 00:48:12
Источник: Виктор
Наличие сканов в содержимом раздачи: да
Треклист: Виктор
01. Fireline (3:51)
02. Too Much Is Not Enough (3:42)
03. A Roll Of The Dice (4:26)
04. Mad World (3:48)
05. When He Comes Around (3:51)
06. Thousand Kings (4:23)
07. I Still Rock (3:00)
08. Fake News (3:51)
09. When It All Falls Down (4:26)
10. Turn The Light On (3:33)
11. Son Of Fire (4:17)
12. New Tomorrow (5:08)

Лог создания рипа

Exact Audio Copy V1.1 from 23. June 2015
EAC extraction logfile from 20. March 2020, 22:23
Shakra / Mad World (FO1546CD)
Used drive : PIONEER BD-RW BDR-209D Adapter: 0 ID: 5
Read mode : Secure
Utilize accurate stream : Yes
Defeat audio cache : Yes
Make use of C2 pointers : No
Read offset correction : 667
Overread into Lead-In and Lead-Out : No
Fill up missing offset samples with silence : Yes
Delete leading and trailing silent blocks : No
Null samples used in CRC calculations : Yes
Used interface : Installed external ASPI interface
Used output format : User Defined Encoder
Selected bitrate : 768 kBit/s
Quality : High
Add ID3 tag : No
Command line compressor : C:\Program Files (x86)\Exact Audio Copy\FLAC\FLAC.EXE
Additional command line options : -6 -V -T "ARTIST=%artist%" -T "TITLE=%title%" -T "ALBUM=%albumtitle%" -T "DATE=%year%" -T "TRACKNUMBER=%tracknr%" -T "GENRE=%genre%" -T "COMMENT=%comment%" -T "BAND=%albuminterpret%" -T "ALBUMARTIST=%albuminterpret%" -T "COMPOSER=%composer%" %haslyrics%--tag-from-file=LYRICS="%lyricsfile%"%haslyrics% -T "DISCNUMBER=%cdnumber%" -T "TOTALDISCS=%totalcds%" -T "TOTALTRACKS=%numtracks%" %hascover%--picture="%coverfile%"%hascover% %source% -o %dest%
TOC of the extracted CD
Track | Start | Length | Start sector | End sector
---------------------------------------------------------
1 | 0:00.00 | 3:50.38 | 0 | 17287
2 | 3:50.38 | 3:41.47 | 17288 | 33909
3 | 7:32.10 | 4:25.64 | 33910 | 53848
4 | 11:57.74 | 3:47.20 | 53849 | 70893
5 | 15:45.19 | 3:50.42 | 70894 | 88185
6 | 19:35.61 | 4:23.13 | 88186 | 107923
7 | 23:58.74 | 3:00.09 | 107924 | 121432
8 | 26:59.08 | 3:50.47 | 121433 | 138729
9 | 30:49.55 | 4:25.53 | 138730 | 158657
10 | 35:15.33 | 3:32.27 | 158658 | 174584
11 | 38:47.60 | 4:17.06 | 174585 | 193865
12 | 43:04.66 | 5:08.11 | 193866 | 216976
Range status and errors
Selected range
Filename E:\MUSIC\Shakra - Mad World (FO1546CD).wav
Peak level 97.0 %
Extraction speed 1.9 X
Range quality 100.0 %
Test CRC C751C800
Copy CRC C751C800
Copy OK
No errors occurred
AccurateRip summary
Track 1 not present in database
Track 2 not present in database
Track 3 not present in database
Track 4 not present in database
Track 5 not present in database
Track 6 not present in database
Track 7 not present in database
Track 8 not present in database
Track 9 not present in database
Track 10 not present in database
Track 11 not present in database
Track 12 not present in database
None of the tracks are present in the AccurateRip database
End of status report
==== Log checksum 9542A1380AE6A89FC4653A83A016ED3FAFA0DB1A32462688D37E83B2972DA0C9 ====

Содержание индексной карты (.CUE)

REM GENRE "Hard Rock"
REM DATE 2020
REM DISCID 9D0B4D0C
REM COMMENT "ExactAudioCopy v1.1"
PERFORMER "Shakra"
TITLE "Mad World (FO1546CD)"
FILE "Shakra - Mad World (FO1546CD).flac" WAVE
TRACK 01 AUDIO
TITLE "Fireline"
PERFORMER "Shakra"
INDEX 01 00:00:00
TRACK 02 AUDIO
TITLE "Too Much Is Not Enough"
PERFORMER "Shakra"
INDEX 01 03:50:38
TRACK 03 AUDIO
TITLE "A Roll Of The Dice"
PERFORMER "Shakra"
INDEX 01 07:32:10
TRACK 04 AUDIO
TITLE "Mad World"
PERFORMER "Shakra"
INDEX 01 11:57:74
TRACK 05 AUDIO
TITLE "When He Comes Around"
PERFORMER "Shakra"
INDEX 01 15:45:19
TRACK 06 AUDIO
TITLE "Thousand Kings"
PERFORMER "Shakra"
INDEX 01 19:35:61
TRACK 07 AUDIO
TITLE "I Still Rock"
PERFORMER "Shakra"
INDEX 01 23:58:74
TRACK 08 AUDIO
TITLE "Fake News"
PERFORMER "Shakra"
INDEX 01 26:59:08
TRACK 09 AUDIO
TITLE "When It All Falls Down"
PERFORMER "Shakra"
INDEX 01 30:49:55
TRACK 10 AUDIO
TITLE "Turn The Light On"
PERFORMER "Shakra"
INDEX 01 35:15:33
TRACK 11 AUDIO
TITLE "Son Of Fire"
PERFORMER "Shakra"
INDEX 01 38:47:60
TRACK 12 AUDIO
TITLE "New Tomorrow"
PERFORMER "Shakra"
INDEX 01 43:04:66
Профиль [ЛС]
Показать сообщения:    

Текущее время: 18-Окт 23:11

Часовой пояс: UTC ± 0



Вы не можете начинать темы
Вы не можете отвечать на сообщения
Вы не можете редактировать свои сообщения
Вы не можете удалять свои сообщения
Вы не можете голосовать в опросах
Вы не можете прикреплять файлы к сообщениям
Вы не можете скачивать файлы