Статистика раздачи
Скачал: [ 1 ]
 
     
 
 

MAGNAT ®

Пол:
Мужской
Стаж:
2 года 6 месяцев
Сообщений:
11685

Откуда: Москва

V A
"Even a Tree Can Shed Tears:
Japanese Folk & Rock 1969-1973"

  • Жанры: Contemporary Folk, Singer/Songwriter, Psychedelic Folk
  • Издатель: Light in the Attic (United States)
  • Номер по каталогу: LITA 156
  • Релиз компиляции: 20.10.2017
  • Аудио кодек: FLAC (*.flac)
  • Битрейт аудио: lossless
  • Тип рипа: tracks+.cue
  • Источник: redacted

  • Формат: CD
    .
  • TRACK LISTING
    01. .Kenji Endo — Curry Rice .(03:03)
    02. .Kazuhiko Yamahira & The Sherman — Sotto Futari de .(02:53)
    03. .Sachiko Kanenobu — Anata Kara Toku e .(03:30)
    04. .Fluid — Rokudenashi .(02:53)
    05. .Kazuhiko Kato — Arthur Hakase no Jinriki Hikouki .(05:47)
    06. .Happy End — Natsu Nandesu .(03:16)
    07. .Takashi Nishioka — Man-in no Ki .(04:08)
    08. .Masato Minami — Yoru wo Kugurinukeru Made .(03:28)
    09. .Maki Asakawa — Konna Fu ni Sugite Iku no Nara .(03:58)
    10. .Fumio Nunoya — Mizu Tamari .(02:29)
    11. .Haruomi Hosono — Boku wa Chotto .(03:56)
    12. .Takuro Yoshida — Aoi Natsu .(03:06)
    13. .Akai Tori — Takeda no Komori Uta .(03:10)
    14. .Gu — Marianne .(06:29)
    15. .Tetsuo Saito — Ware Ware wa .(05:45)
    16. .Gypsy Blood — Sugishi Hi wo Mitsumete .(03:57)
    17. .Hachimitsu Pie — Hei no Ue de .(06:30)
    18. .Ryo Kagawa — Zeni no Kouryouryoku ni Tsuite .(04:02)
    19. .The Dylan II — Otokorashiitte Wakaru Kai .(04:42)

    total length [01:16:52]

    XLD

    X Lossless Decoder version 20170729 (150.3)
    XLD extraction logfile from 2017-11-01 08:01:18 -0400
    Various Artists / Even A Tree Can Shed Tears: Japanese Folk & Rock 1969-1973
    Used drive : TSSTcorp BDDVDW SE-506CB (revision TS02)
    Media type : Pressed CD
    Ripper mode : XLD Secure Ripper
    Disable audio cache : OK for the drive with a cache less than 1375KiB
    Make use of C2 pointers : NO
    Read offset correction : 6
    Max retry count : 20
    Gap status : Analyzed, Appended (except HTOA)
    TOC of the extracted CD
    Track | Start | Length | Start sector | End sector
    ---------------------------------------------------------
    1 | 00:00:00 | 03:02:04 | 0 | 13653
    2 | 03:02:04 | 02:52:19 | 13654 | 26572
    3 | 05:54:23 | 03:29:74 | 26573 | 42321
    4 | 09:24:22 | 02:52:34 | 42322 | 55255
    5 | 12:16:56 | 05:46:42 | 55256 | 81247
    6 | 18:03:23 | 03:15:12 | 81248 | 95884
    7 | 21:18:35 | 04:07:53 | 95885 | 114462
    8 | 25:26:13 | 03:27:39 | 114463 | 130026
    9 | 28:53:52 | 03:57:19 | 130027 | 147820
    10 | 32:50:71 | 02:28:60 | 147821 | 158980
    11 | 35:19:56 | 03:55:72 | 158981 | 176677
    12 | 39:15:53 | 03:05:45 | 176678 | 190597
    13 | 42:21:23 | 03:09:02 | 190598 | 204774
    14 | 45:30:25 | 06:28:28 | 204775 | 233902
    15 | 51:58:53 | 05:44:03 | 233903 | 259705
    16 | 57:42:56 | 03:56:48 | 259706 | 277453
    17 | 61:39:29 | 06:29:47 | 277454 | 306675
    18 | 68:09:01 | 04:01:49 | 306676 | 324799
    19 | 72:10:50 | 04:41:03 | 324800 | 345877
    AccurateRip Summary
    Disc not found in AccurateRip DB.
    All Tracks
    Album gain : -4.30 dB
    Peak : 0.954620
    Statistics
    Read error : 0
    Jitter error (maybe fixed) : 10
    Retry sector count : 1523
    Damaged sector count : 0
    Track 01
    Filename : /Users/jhmac/Music/XLD rips/Compilations - Even A Tree Can Shed Tears: Japanese Folk & Rock 1969-1973 (2017) [FLAC]/01 Curry Rice.flac
    Pre-gap length : 00:02:00
    Track gain : -0.89 dB
    Peak : 0.853729
    CRC32 hash (test run) : 528B0AEE
    CRC32 hash : 528B0AEE
    CRC32 hash (skip zero) : 6323E969
    AccurateRip v1 signature : DD0E1C51
    AccurateRip v2 signature : 1E2B03FE
    ->Track not present in AccurateRip database.
    Statistics
    Read error : 0
    Jitter error (maybe fixed) : 0
    Retry sector count : 0
    Damaged sector count : 0
    Track 02
    Filename : /Users/jhmac/Music/XLD rips/Compilations - Even A Tree Can Shed Tears: Japanese Folk & Rock 1969-1973 (2017) [FLAC]/02 Sotto Futari De.flac
    Track gain : -3.68 dB
    Peak : 0.866852
    CRC32 hash (test run) : ED2BE2D7
    CRC32 hash : ED2BE2D7
    CRC32 hash (skip zero) : 93F5D95E
    AccurateRip v1 signature : EB111837
    AccurateRip v2 signature : FC4FBE44
    ->Track not present in AccurateRip database.
    Statistics
    Read error : 0
    Jitter error (maybe fixed) : 2
    Retry sector count : 287
    Damaged sector count : 0
    Track 03
    Filename : /Users/jhmac/Music/XLD rips/Compilations - Even A Tree Can Shed Tears: Japanese Folk & Rock 1969-1973 (2017) [FLAC]/03 Anata Kara Toku E.flac
    Track gain : -3.14 dB
    Peak : 0.759613
    CRC32 hash (test run) : 040CDDCA
    CRC32 hash : 040CDDCA
    CRC32 hash (skip zero) : BAE6152A
    AccurateRip v1 signature : C841AC9D
    AccurateRip v2 signature : 8FC965D4
    ->Track not present in AccurateRip database.
    Statistics
    Read error : 0
    Jitter error (maybe fixed) : 1
    Retry sector count : 268
    Damaged sector count : 0
    Track 04
    Filename : /Users/jhmac/Music/XLD rips/Compilations - Even A Tree Can Shed Tears: Japanese Folk & Rock 1969-1973 (2017) [FLAC]/04 Rokudenashi.flac
    Track gain : -4.39 dB
    Peak : 0.850769
    CRC32 hash (test run) : 8B812984
    CRC32 hash : 8B812984
    CRC32 hash (skip zero) : C13BD9E9
    AccurateRip v1 signature : 5C10D5FE
    AccurateRip v2 signature : C26FEEC1
    ->Track not present in AccurateRip database.
    Statistics
    Read error : 0
    Jitter error (maybe fixed) : 0
    Retry sector count : 0
    Damaged sector count : 0
    Track 05
    Filename : /Users/jhmac/Music/XLD rips/Compilations - Even A Tree Can Shed Tears: Japanese Folk & Rock 1969-1973 (2017) [FLAC]/05 Arthur Hakase No Jinriki Hikouki.flac
    Track gain : -5.55 dB
    Peak : 0.946259
    CRC32 hash (test run) : 942C0E9A
    CRC32 hash : 942C0E9A
    CRC32 hash (skip zero) : EF201A5A
    AccurateRip v1 signature : CBB0C7C8
    AccurateRip v2 signature : 30A1D94E
    ->Track not present in AccurateRip database.
    Statistics
    Read error : 0
    Jitter error (maybe fixed) : 1
    Retry sector count : 0
    Damaged sector count : 0
    Track 06
    Filename : /Users/jhmac/Music/XLD rips/Compilations - Even A Tree Can Shed Tears: Japanese Folk & Rock 1969-1973 (2017) [FLAC]/06 Natsu Nandesu.flac
    Track gain : -4.15 dB
    Peak : 0.874054
    CRC32 hash (test run) : 8EAC7E4B
    CRC32 hash : 8EAC7E4B
    CRC32 hash (skip zero) : 893F57FC
    AccurateRip v1 signature : 0DC355E2
    AccurateRip v2 signature : 1470A36F
    ->Track not present in AccurateRip database.
    Statistics
    Read error : 0
    Jitter error (maybe fixed) : 0
    Retry sector count : 0
    Damaged sector count : 0
    Track 07
    Filename : /Users/jhmac/Music/XLD rips/Compilations - Even A Tree Can Shed Tears: Japanese Folk & Rock 1969-1973 (2017) [FLAC]/07 Man-in No Ki.flac
    Track gain : -2.41 dB
    Peak : 0.842987
    CRC32 hash (test run) : 18B50879
    CRC32 hash : 18B50879
    CRC32 hash (skip zero) : E95E6B5B
    AccurateRip v1 signature : 8B2DE3A0
    AccurateRip v2 signature : 87589EF1
    ->Track not present in AccurateRip database.
    Statistics
    Read error : 0
    Jitter error (maybe fixed) : 2
    Retry sector count : 136
    Damaged sector count : 0
    Track 08
    Filename : /Users/jhmac/Music/XLD rips/Compilations - Even A Tree Can Shed Tears: Japanese Folk & Rock 1969-1973 (2017) [FLAC]/08 Yoru Wo Kugurinukeru Made.flac
    Track gain : -4.31 dB
    Peak : 0.954620
    CRC32 hash (test run) : 5DDDD72C
    CRC32 hash : 5DDDD72C
    CRC32 hash (skip zero) : 1AEC7DEE
    AccurateRip v1 signature : 1D81C32D
    AccurateRip v2 signature : 8E57EF39
    ->Track not present in AccurateRip database.
    Statistics
    Read error : 0
    Jitter error (maybe fixed) : 0
    Retry sector count : 0
    Damaged sector count : 0
    Track 09
    Filename : /Users/jhmac/Music/XLD rips/Compilations - Even A Tree Can Shed Tears: Japanese Folk & Rock 1969-1973 (2017) [FLAC]/09 Konna Fu Ni Sugite Iku No Nara.flac
    Track gain : -2.59 dB
    Peak : 0.944244
    CRC32 hash (test run) : 7A4F913A
    CRC32 hash : 7A4F913A
    CRC32 hash (skip zero) : FA04C518
    AccurateRip v1 signature : 84ADAC70
    AccurateRip v2 signature : 63042006
    ->Track not present in AccurateRip database.
    Statistics
    Read error : 0
    Jitter error (maybe fixed) : 0
    Retry sector count : 0
    Damaged sector count : 0
    Track 10
    Filename : /Users/jhmac/Music/XLD rips/Compilations - Even A Tree Can Shed Tears: Japanese Folk & Rock 1969-1973 (2017) [FLAC]/10 Mizu Tamari.flac
    Track gain : -4.94 dB
    Peak : 0.860168
    CRC32 hash (test run) : 89EC7EE3
    CRC32 hash : 89EC7EE3
    CRC32 hash (skip zero) : 7CF83212
    AccurateRip v1 signature : 407DA715
    AccurateRip v2 signature : B98EAF3A
    ->Track not present in AccurateRip database.
    Statistics
    Read error : 0
    Jitter error (maybe fixed) : 0
    Retry sector count : 0
    Damaged sector count : 0
    Track 11
    Filename : /Users/jhmac/Music/XLD rips/Compilations - Even A Tree Can Shed Tears: Japanese Folk & Rock 1969-1973 (2017) [FLAC]/11 Boku Wa Chotto.flac
    Track gain : -2.70 dB
    Peak : 0.891968
    CRC32 hash (test run) : 4E01E440
    CRC32 hash : 4E01E440
    CRC32 hash (skip zero) : 4237272E
    AccurateRip v1 signature : 35DA892B
    AccurateRip v2 signature : CA47F473
    ->Track not present in AccurateRip database.
    Statistics
    Read error : 0
    Jitter error (maybe fixed) : 0
    Retry sector count : 0
    Damaged sector count : 0
    Track 12
    Filename : /Users/jhmac/Music/XLD rips/Compilations - Even A Tree Can Shed Tears: Japanese Folk & Rock 1969-1973 (2017) [FLAC]/12 Aoi Natsu.flac
    Track gain : -2.39 dB
    Peak : 0.615631
    CRC32 hash (test run) : 87584CA0
    CRC32 hash : 87584CA0
    CRC32 hash (skip zero) : 086AED9A
    AccurateRip v1 signature : 3ECFDB5F
    AccurateRip v2 signature : 7F238E42
    ->Track not present in AccurateRip database.
    Statistics
    Read error : 0
    Jitter error (maybe fixed) : 0
    Retry sector count : 0
    Damaged sector count : 0
    Track 13
    Filename : /Users/jhmac/Music/XLD rips/Compilations - Even A Tree Can Shed Tears: Japanese Folk & Rock 1969-1973 (2017) [FLAC]/13 Takeda No Komori Uta.flac
    Track gain : -3.30 dB
    Peak : 0.737732
    CRC32 hash (test run) : 8CB75C98
    CRC32 hash : 8CB75C98
    CRC32 hash (skip zero) : 9A2A682D
    AccurateRip v1 signature : E849994D
    AccurateRip v2 signature : 1A335413
    ->Track not present in AccurateRip database.
    Statistics
    Read error : 0
    Jitter error (maybe fixed) : 0
    Retry sector count : 0
    Damaged sector count : 0
    Track 14
    Filename : /Users/jhmac/Music/XLD rips/Compilations - Even A Tree Can Shed Tears: Japanese Folk & Rock 1969-1973 (2017) [FLAC]/14 Marianne.flac
    Track gain : -1.77 dB
    Peak : 0.603516
    CRC32 hash (test run) : AEE6D798
    CRC32 hash : AEE6D798
    CRC32 hash (skip zero) : D136046B
    AccurateRip v1 signature : 3242524D
    AccurateRip v2 signature : 38420CFD
    ->Track not present in AccurateRip database.
    Statistics
    Read error : 0
    Jitter error (maybe fixed) : 0
    Retry sector count : 0
    Damaged sector count : 0
    Track 15
    Filename : /Users/jhmac/Music/XLD rips/Compilations - Even A Tree Can Shed Tears: Japanese Folk & Rock 1969-1973 (2017) [FLAC]/15 Ware Ware Wa.flac
    Track gain : -6.09 dB
    Peak : 0.944153
    CRC32 hash (test run) : 9CEE7F4B
    CRC32 hash : 9CEE7F4B
    CRC32 hash (skip zero) : F0A92C49
    AccurateRip v1 signature : B8885D6B
    AccurateRip v2 signature : 7E9C9245
    ->Track not present in AccurateRip database.
    Statistics
    Read error : 0
    Jitter error (maybe fixed) : 0
    Retry sector count : 0
    Damaged sector count : 0
    Track 16
    Filename : /Users/jhmac/Music/XLD rips/Compilations - Even A Tree Can Shed Tears: Japanese Folk & Rock 1969-1973 (2017) [FLAC]/16 Sugishi Hi Wo Mitsumete.flac
    Track gain : -4.17 dB
    Peak : 0.944122
    CRC32 hash (test run) : 0AD14B16
    CRC32 hash : 0AD14B16
    CRC32 hash (skip zero) : 0E1C649E
    AccurateRip v1 signature : 857241F2
    AccurateRip v2 signature : DB8C3ED9
    ->Track not present in AccurateRip database.
    Statistics
    Read error : 0
    Jitter error (maybe fixed) : 2
    Retry sector count : 396
    Damaged sector count : 0
    Track 17
    Filename : /Users/jhmac/Music/XLD rips/Compilations - Even A Tree Can Shed Tears: Japanese Folk & Rock 1969-1973 (2017) [FLAC]/17 Hei No Ue De.flac
    Track gain : -4.87 dB
    Peak : 0.944153
    CRC32 hash (test run) : FA60C123
    CRC32 hash : FA60C123
    CRC32 hash (skip zero) : C484C789
    AccurateRip v1 signature : A852FB24
    AccurateRip v2 signature : 6AB6A07B
    ->Track not present in AccurateRip database.
    Statistics
    Read error : 0
    Jitter error (maybe fixed) : 0
    Retry sector count : 264
    Damaged sector count : 0
    Track 18
    Filename : /Users/jhmac/Music/XLD rips/Compilations - Even A Tree Can Shed Tears: Japanese Folk & Rock 1969-1973 (2017) [FLAC]/18 Zeni No Koyoryoku Ni Tsuite.flac
    Track gain : -5.37 dB
    Peak : 0.862518
    CRC32 hash (test run) : 7CBC1568
    CRC32 hash : 7CBC1568
    CRC32 hash (skip zero) : AAC8141F
    AccurateRip v1 signature : 4BBB4B7B
    AccurateRip v2 signature : 7D593B8D
    ->Track not present in AccurateRip database.
    Statistics
    Read error : 0
    Jitter error (maybe fixed) : 2
    Retry sector count : 71
    Damaged sector count : 0
    Track 19
    Filename : /Users/jhmac/Music/XLD rips/Compilations - Even A Tree Can Shed Tears: Japanese Folk & Rock 1969-1973 (2017) [FLAC]/19 Otokorashiitte Wakarukai (I Shall Be Released).flac
    Track gain : -3.77 dB
    Peak : 0.944000
    CRC32 hash (test run) : A7DA0AEC
    CRC32 hash : A7DA0AEC
    CRC32 hash (skip zero) : A5D3B3AB
    AccurateRip v1 signature : 4B12E8EE
    AccurateRip v2 signature : E6A551BF
    ->Track not present in AccurateRip database.
    Statistics
    Read error : 0
    Jitter error (maybe fixed) : 0
    Retry sector count : 101
    Damaged sector count : 0
    No errors occurred
    End of status report
    -----BEGIN XLD SIGNATURE-----
    LMkNjdqzZkKn.mCUezExpzFw7Fq3.t1LMrwYxwEgnetGQ.tSR5G_7n0M0zBsNb9vHWQgenYYnpNv_UT84BItAT1o2C18pk.NLl.LE7C
    -----END XLD SIGNATURE-----

    .CUE

    TITLE "Even a Tree Can Shed Tears: Japanese Folk & Rock 1969-1973"
    PERFORMER "Various Artists"
    REM GENRE "Contemporary Folk"
    REM DATE "2017"
    REM DISCID FB120313
    REM REPLAYGAIN_ALBUM_GAIN -4.30 dB
    REM REPLAYGAIN_ALBUM_PEAK 0.954620
    REM COMPILATION TRUE
    FILE "01. Kenji Endo - Curry Rice.wav" WAVE
    TRACK 01 AUDIO
    TITLE "Curry Rice"
    PERFORMER "Kenji Endo"
    ISRC JPPO07201330
    REM REPLAYGAIN_TRACK_GAIN -0.89 dB
    REM REPLAYGAIN_TRACK_PEAK 0.853729
    INDEX 01 00:00:00
    FILE "02. Kazuhiko Yamahira & The Sherman - Sotto Futari de.wav" WAVE
    TRACK 02 AUDIO
    TITLE "Sotto Futari de"
    PERFORMER "Kazuhiko Yamahira & The Sherman"
    ISRC JPS307000106
    REM REPLAYGAIN_TRACK_GAIN -3.68 dB
    REM REPLAYGAIN_TRACK_PEAK 0.866852
    INDEX 01 00:00:00
    FILE "03. Sachiko Kanenobu - Anata Kara Toku e.wav" WAVE
    TRACK 03 AUDIO
    TITLE "Anata Kara Toku e"
    PERFORMER "Sachiko Kanenobu"
    ISRC JPS307200003
    REM REPLAYGAIN_TRACK_GAIN -3.14 dB
    REM REPLAYGAIN_TRACK_PEAK 0.759613
    INDEX 01 00:00:00
    FILE "04. Fluid - Rokudenashi.wav" WAVE
    TRACK 04 AUDIO
    TITLE "Rokudenashi"
    PERFORMER "Fluid"
    ISRC JPVP00509104
    REM REPLAYGAIN_TRACK_GAIN -4.39 dB
    REM REPLAYGAIN_TRACK_PEAK 0.850769
    INDEX 01 00:00:00
    FILE "05. Kazuhiko Kato - Arthur Hakase no Jinriki Hikouki.wav" WAVE
    TRACK 05 AUDIO
    TITLE "Arthur Hakase no Jinriki Hikouki"
    PERFORMER "Kuzuhiko Kato"
    ISRC JPTO09103690
    REM REPLAYGAIN_TRACK_GAIN -5.55 dB
    REM REPLAYGAIN_TRACK_PEAK 0.946259
    INDEX 01 00:00:00
    FILE "06. Happy End - Natsu Nandesu.wav" WAVE
    TRACK 06 AUDIO
    TITLE "Natsu Nandesu"
    PERFORMER "Happy End"
    ISRC JPS307200199
    REM REPLAYGAIN_TRACK_GAIN -4.15 dB
    REM REPLAYGAIN_TRACK_PEAK 0.874054
    INDEX 01 00:00:00
    FILE "07. Takashi Nishioka - Man-in no Ki.wav" WAVE
    TRACK 07 AUDIO
    TITLE "Man-in no Ki"
    PERFORMER "Takashi Nishioka"
    ISRC JPS307300003
    REM REPLAYGAIN_TRACK_GAIN -2.41 dB
    REM REPLAYGAIN_TRACK_PEAK 0.842987
    INDEX 01 00:00:00
    FILE "08. Masato Minami - Yoru wo Kugurinukeru Made.wav" WAVE
    TRACK 08 AUDIO
    TITLE "Yoru wo Kugurinukeru Made"
    PERFORMER "Masato Minami"
    ISRC JPBV07100030
    REM REPLAYGAIN_TRACK_GAIN -4.31 dB
    REM REPLAYGAIN_TRACK_PEAK 0.954620
    INDEX 01 00:00:00
    FILE "09. Maki Asakawa - Konna Fu ni Sugite Iku no Nara.wav" WAVE
    TRACK 09 AUDIO
    TITLE "Konna Fu ni Sugite Iku no Nara"
    PERFORMER "Maki Asakawa"
    ISRC JPTO08416290
    REM REPLAYGAIN_TRACK_GAIN -2.59 dB
    REM REPLAYGAIN_TRACK_PEAK 0.944244
    INDEX 01 00:00:00
    FILE "10. Fumio Nunoya - Mizu Tamari.wav" WAVE
    TRACK 10 AUDIO
    TITLE "Mizu Tamari"
    PERFORMER "Fumio Nunoya"
    ISRC JPPO07300820
    REM REPLAYGAIN_TRACK_GAIN -4.94 dB
    REM REPLAYGAIN_TRACK_PEAK 0.860168
    INDEX 01 00:00:00
    FILE "11. Haruomi Hosono - Boku wa Chotto.wav" WAVE
    TRACK 11 AUDIO
    TITLE "Boku wa Chotto"
    PERFORMER "Haruomi Hosono"
    ISRC JPKI07355430
    REM REPLAYGAIN_TRACK_GAIN -2.70 dB
    REM REPLAYGAIN_TRACK_PEAK 0.891968
    INDEX 01 00:00:00
    FILE "12. Takuro Yoshida - Aoi Natsu.wav" WAVE
    TRACK 12 AUDIO
    TITLE "Aoi Natsu"
    PERFORMER "Takuro Yoshida"
    ISRC JPSR07305550
    REM REPLAYGAIN_TRACK_GAIN -2.39 dB
    REM REPLAYGAIN_TRACK_PEAK 0.615631
    INDEX 01 00:00:00
    FILE "13. Akai Tori - Takeda no Komori Uta.wav" WAVE
    TRACK 13 AUDIO
    TITLE "Takeda no Komori Uta"
    PERFORMER "Akai Tori"
    ISRC JPAL07000140
    REM REPLAYGAIN_TRACK_GAIN -3.30 dB
    REM REPLAYGAIN_TRACK_PEAK 0.737732
    INDEX 01 00:00:00
    FILE "14. Gu - Marianne.wav" WAVE
    TRACK 14 AUDIO
    TITLE "Marianne"
    PERFORMER "Gu"
    ISRC JPS306900133
    REM REPLAYGAIN_TRACK_GAIN -1.77 dB
    REM REPLAYGAIN_TRACK_PEAK 0.603516
    INDEX 01 00:00:00
    FILE "15. Tetsuo Saito - Ware Ware wa.wav" WAVE
    TRACK 15 AUDIO
    TITLE "Ware Ware wa"
    PERFORMER "Tetsuo Saito"
    ISRC JPS307100090
    REM REPLAYGAIN_TRACK_GAIN -6.09 dB
    REM REPLAYGAIN_TRACK_PEAK 0.944153
    INDEX 01 00:00:00
    FILE "16. Gypsy Blood - Sugishi Hi wo Mitsumete.wav" WAVE
    TRACK 16 AUDIO
    TITLE "Sugishi Hi wo Mitsumete"
    PERFORMER "Gypsy Blood"
    ISRC JPMV00208160
    REM REPLAYGAIN_TRACK_GAIN -4.17 dB
    REM REPLAYGAIN_TRACK_PEAK 0.944122
    INDEX 01 00:00:00
    FILE "17. Hachimitsu Pie - Hei no Ue de.wav" WAVE
    TRACK 17 AUDIO
    TITLE "Hei no Ue de"
    PERFORMER "Hachimitsu Pie"
    ISRC JPKI07304470
    REM REPLAYGAIN_TRACK_GAIN -4.87 dB
    REM REPLAYGAIN_TRACK_PEAK 0.944153
    INDEX 01 00:00:00
    FILE "18. Ryo Kagawa - Zeni no Kouryouryoku ni Tsuite.wav" WAVE
    TRACK 18 AUDIO
    TITLE "Zeni no Kouryouryoku ni Tsuite"
    PERFORMER "Ryo Kagawa"
    ISRC JPS307100036
    REM REPLAYGAIN_TRACK_GAIN -5.37 dB
    REM REPLAYGAIN_TRACK_PEAK 0.862518
    INDEX 01 00:00:00
    FILE "19. The Dylan II - Otokorashiitte Wakaru Kai.wav" WAVE
    TRACK 19 AUDIO
    TITLE "Otokorashiitte Wakaru Kai"
    PERFORMER "The Dylan II"
    ISRC JPS307100049
    REM REPLAYGAIN_TRACK_GAIN -3.77 dB
    REM REPLAYGAIN_TRACK_PEAK 0.944000
    INDEX 01 00:00:00
  • Профиль [ЛС]
    Показать сообщения:    

    Текущее время: 18-Окт 23:36

    Часовой пояс: UTC ± 0



    Вы не можете начинать темы
    Вы не можете отвечать на сообщения
    Вы не можете редактировать свои сообщения
    Вы не можете удалять свои сообщения
    Вы не можете голосовать в опросах
    Вы не можете прикреплять файлы к сообщениям
    Вы не можете скачивать файлы