Статистика раздачи
Нет
 
     
 
 

MAGNAT ®

Пол:
Мужской
Стаж:
2 года 6 месяцев
Сообщений:
11685

Откуда: Москва

George Goldner Presents The Rama Story
Жанр: Doo Wop, Rock & Roll, Rockabilly, Vocal
Носитель: CD
Страна-производитель диска (релиза): UK
Год издания: 1999
Издатель (лейбл): Westside Records
Номер по каталогу: WESD 215
Страна исполнителя (группы): USA
Аудиокодек: FLAC (*.flac)
Тип рипа: tracks+.cue
Источник: Сеть
Наличие сканов в содержимом раздачи: да

CD1

1. Gee - The Crows
2. I Was Such A Fool (To Fall In Love With You) - The Five Budds
3. I Want Her Back - The Five Budds
4. No Help Wanted - The Crows
5. Seven Lonely Days - Viola Watkins & The Crows
6. Be With The One You Love - Bert Keyes & His Trio
7. Real Fine Man - Viola Watkins
8. I Was Such A Fool (To Fall In Love With You) - Bert Keyes
9. Will You Remember (The Answer To Tomorrow Night) - Lonnie Johnson
10. The Stars Will Remember - The Buccaneers
11. In The Mission Of St. Augustine - The Buccaneers
12. Too Hot To Handle - The Blue Notes
13. If My Heart Could Only Talk - The Blue Notes
14. Untrue - The Crows
15. Write Me Baby - Bert Keyes
16. Gumbo Mambo - The Larke Sisters
17. Come Back My Love - The Wrens
18. What Can I Tell Her Now? - The Bells
19. The Wedding - The Bell Tones
20. Lily Maebelle - The Valentines
21. Betty Jean - The Wrens
22. Readin' 'Ritin' 'Rithmetic Rock 'N' Roll - The Five Encores
23. One Scotch, One Bourbon, One Beer - The Five Encores
24. You're An Angel - The Continentals
25. All My Love Belongs To You - The Joytones
26. Teenage Heart - Rita Delmar
27. C'est La Vie - The Wrens
28. The Woo Woo Train - The Valentines
29. 2:20 A.M. - Jimmy Wright

EAC

Exact Audio Copy V1.0 beta 3 from 29. August 2011
EAC extraction logfile from 15. August 2014, 15:08
Various Artists / The Rama Story (Disc 1)
Used drive : TSSTcorpCDDVDW SH-224BB Adapter: 0 ID: 0
Read mode : Secure
Utilize accurate stream : Yes
Defeat audio cache : Yes
Make use of C2 pointers : No
Read offset correction : 6
Overread into Lead-In and Lead-Out : No
Fill up missing offset samples with silence : Yes
Delete leading and trailing silent blocks : No
Null samples used in CRC calculations : Yes
Used interface : Native Win32 interface for Win NT & 2000
Gap handling : Appended to previous track
Used output format : User Defined Encoder
Selected bitrate : 768 kBit/s
Quality : High
Add ID3 tag : No
Command line compressor : C:\Program Files (x86)\Exact Audio Copy\FLAC\FLAC.EXE
Additional command line options : -8 -V -T "ARTIST=%artist%" -T "TITLE=%title%" -T "ALBUM=%albumtitle%" -T "DATE=%year%" -T "TRACKNUMBER=%tracknr%" -T "TOTALTRACKS=%numtracks%" -T "GENRE=%genre%" -T "ALBUMARTIST=%albumartist%" -T "ALBUM ARTIST=%albumartist%" -T "COMMENT=EAC Secure Mode, Test & Copy, AccurateRip, FLAC -8" %source%
TOC of the extracted CD
Track | Start | Length | Start sector | End sector
---------------------------------------------------------
1 | 0:00.00 | 2:14.21 | 0 | 10070
2 | 2:14.21 | 3:18.71 | 10071 | 24991
3 | 5:33.17 | 2:45.40 | 24992 | 37406
4 | 8:18.57 | 2:31.25 | 37407 | 48756
5 | 10:50.07 | 2:55.72 | 48757 | 61953
6 | 13:46.04 | 2:40.16 | 61954 | 73969
7 | 16:26.20 | 2:34.44 | 73970 | 85563
8 | 19:00.64 | 2:47.22 | 85564 | 98110
9 | 21:48.11 | 2:54.06 | 98111 | 111166
10 | 24:42.17 | 3:16.68 | 111167 | 125934
11 | 27:59.10 | 2:56.01 | 125935 | 139135
12 | 30:55.11 | 2:03.43 | 139136 | 148403
13 | 32:58.54 | 2:43.70 | 148404 | 160698
14 | 35:42.49 | 2:50.67 | 160699 | 173515
15 | 38:33.41 | 2:16.58 | 173516 | 183773
16 | 40:50.24 | 2:47.41 | 183774 | 196339
17 | 43:37.65 | 2:25.10 | 196340 | 207224
18 | 46:03.00 | 2:30.17 | 207225 | 218491
19 | 48:33.17 | 3:00.55 | 218492 | 232046
20 | 51:33.72 | 2:17.28 | 232047 | 242349
21 | 53:51.25 | 3:04.03 | 242350 | 256152
22 | 56:55.28 | 2:32.01 | 256153 | 267553
23 | 59:27.29 | 2:55.24 | 267554 | 280702
24 | 62:22.53 | 2:55.56 | 280703 | 293883
25 | 65:18.34 | 2:36.11 | 293884 | 305594
26 | 67:54.45 | 2:27.24 | 305595 | 316643
27 | 70:21.69 | 2:27.57 | 316644 | 327725
28 | 72:49.51 | 2:52.37 | 327726 | 340662
29 | 75:42.13 | 2:50.09 | 340663 | 353421
Track 1
Filename C:\Rips\Various Artists - The Rama Story (1999) [FLAC]\CD1\01 - The Crows - Gee.wav
Pre-gap length 0:00:02.00
Peak level 99.8 %
Extraction speed 4.2 X
Track quality 100.0 %
Test CRC 3EA7EF87
Copy CRC 3EA7EF87
Accurately ripped (confidence 1) [EF82A58B] (AR v1)
Copy OK
Track 2
Filename C:\Rips\Various Artists - The Rama Story (1999) [FLAC]\CD1\02 - The Five Budds - I Was Such A Fool (To Fall In Love With You).wav
Pre-gap length 0:00:03.28
Peak level 99.3 %
Extraction speed 4.8 X
Track quality 100.0 %
Test CRC 561B2089
Copy CRC 561B2089
Track not present in AccurateRip database
Copy OK
Track 3
Filename C:\Rips\Various Artists - The Rama Story (1999) [FLAC]\CD1\03 - The Five Budds - I Want Her Back.wav
Pre-gap length 0:00:03.59
Peak level 99.3 %
Extraction speed 5.0 X
Track quality 100.0 %
Test CRC AAD7222E
Copy CRC AAD7222E
Track not present in AccurateRip database
Copy OK
Track 4
Filename C:\Rips\Various Artists - The Rama Story (1999) [FLAC]\CD1\04 - The Crows - No Help Wanted.wav
Pre-gap length 0:00:03.12
Peak level 99.8 %
Extraction speed 5.1 X
Track quality 100.0 %
Test CRC 0E707089
Copy CRC 0E707089
Accurately ripped (confidence 1) [E364E6DC] (AR v1)
Copy OK
Track 5
Filename C:\Rips\Various Artists - The Rama Story (1999) [FLAC]\CD1\05 - Viola Watkins & The Crows - Seven Lonely Days.wav
Pre-gap length 0:00:02.70
Peak level 94.2 %
Extraction speed 4.2 X
Track quality 99.9 %
Test CRC CBBEC832
Copy CRC CBBEC832
Track not present in AccurateRip database
Copy OK
Track 6
Filename C:\Rips\Various Artists - The Rama Story (1999) [FLAC]\CD1\06 - Bert Keyes & His Trio - Be With The One You Love.wav
Pre-gap length 0:00:00.02
Peak level 99.8 %
Extraction speed 5.5 X
Track quality 100.0 %
Test CRC 8704C893
Copy CRC 8704C893
Accurately ripped (confidence 1) [59DB5E78] (AR v1)
Copy OK
Track 7
Filename C:\Rips\Various Artists - The Rama Story (1999) [FLAC]\CD1\07 - Viola Watkins - Real Fine Man.wav
Pre-gap length 0:00:03.41
Peak level 99.9 %
Extraction speed 5.7 X
Track quality 100.0 %
Test CRC CB76FD8F
Copy CRC CB76FD8F
Track not present in AccurateRip database
Copy OK
Track 8
Filename C:\Rips\Various Artists - The Rama Story (1999) [FLAC]\CD1\08 - Bert Keyes - I Was Such A Fool (To Fall In Love With You).wav
Pre-gap length 0:00:03.19
Peak level 89.0 %
Extraction speed 4.5 X
Track quality 99.9 %
Test CRC 927895A2
Copy CRC 927895A2
Track not present in AccurateRip database
Copy OK
Track 9
Filename C:\Rips\Various Artists - The Rama Story (1999) [FLAC]\CD1\09 - Lonnie Johnson - Will You Remember (The Answer To Tomorrow Night).wav
Pre-gap length 0:00:04.52
Peak level 99.8 %
Extraction speed 6.3 X
Track quality 100.0 %
Test CRC 0E1F39C4
Copy CRC 0E1F39C4
Track not present in AccurateRip database
Copy OK
Track 10
Filename C:\Rips\Various Artists - The Rama Story (1999) [FLAC]\CD1\10 - The Buccaneers - The Stars Will Remember.wav
Pre-gap length 0:00:04.50
Peak level 98.8 %
Extraction speed 6.6 X
Track quality 100.0 %
Test CRC 42DA41E9
Copy CRC 42DA41E9
Track not present in AccurateRip database
Copy OK
Track 11
Filename C:\Rips\Various Artists - The Rama Story (1999) [FLAC]\CD1\11 - The Buccaneers - In The Mission Of St. Augustine.wav
Pre-gap length 0:00:04.66
Peak level 88.9 %
Extraction speed 6.7 X
Track quality 100.0 %
Test CRC 9F1C3A5B
Copy CRC 9F1C3A5B
Track not present in AccurateRip database
Copy OK
Track 12
Filename C:\Rips\Various Artists - The Rama Story (1999) [FLAC]\CD1\12 - The Blue Notes - Too Hot To Handle.wav
Pre-gap length 0:00:05.24
Peak level 92.9 %
Extraction speed 6.4 X
Track quality 100.0 %
Test CRC AAE1A095
Copy CRC AAE1A095
Accurately ripped (confidence 1) [D3E2DA20] (AR v1)
Copy OK
Track 13
Filename C:\Rips\Various Artists - The Rama Story (1999) [FLAC]\CD1\13 - The Blue Notes - If My Heart Could Only Talk.wav
Pre-gap length 0:00:04.66
Peak level 93.0 %
Extraction speed 6.8 X
Track quality 100.0 %
Test CRC C086A2B7
Copy CRC C086A2B7
Accurately ripped (confidence 1) [E5E008C1] (AR v1)
Copy OK
Track 14
Filename C:\Rips\Various Artists - The Rama Story (1999) [FLAC]\CD1\14 - The Crows - Untrue.wav
Pre-gap length 0:00:04.59
Peak level 84.0 %
Extraction speed 7.0 X
Track quality 100.0 %
Test CRC BA4C74C8
Copy CRC BA4C74C8
Accurately ripped (confidence 1) [E1473A62] (AR v1)
Copy OK
Track 15
Filename C:\Rips\Various Artists - The Rama Story (1999) [FLAC]\CD1\15 - Bert Keyes - Write Me Baby.wav
Pre-gap length 0:00:04.44
Peak level 99.8 %
Extraction speed 4.9 X
Track quality 99.9 %
Test CRC 351535DE
Copy CRC 351535DE
Track not present in AccurateRip database
Copy OK
Track 16
Filename C:\Rips\Various Artists - The Rama Story (1999) [FLAC]\CD1\16 - The Larke Sisters - Gumbo Mambo.wav
Pre-gap length 0:00:03.59
Peak level 99.8 %
Extraction speed 7.4 X
Track quality 100.0 %
Test CRC FC15C0C3
Copy CRC FC15C0C3
Track not present in AccurateRip database
Copy OK
Track 17
Filename C:\Rips\Various Artists - The Rama Story (1999) [FLAC]\CD1\17 - The Wrens - Come Back My Love.wav
Peak level 85.1 %
Extraction speed 7.3 X
Track quality 100.0 %
Test CRC DF0A8E40
Copy CRC DF0A8E40
Track not present in AccurateRip database
Copy OK
Track 18
Filename C:\Rips\Various Artists - The Rama Story (1999) [FLAC]\CD1\18 - The Bells - What Can I Tell Her Now.wav
Pre-gap length 0:00:04.65
Peak level 88.9 %
Extraction speed 7.2 X
Track quality 100.0 %
Test CRC 9EEBD328
Copy CRC 9EEBD328
Track not present in AccurateRip database
Copy OK
Track 19
Filename C:\Rips\Various Artists - The Rama Story (1999) [FLAC]\CD1\19 - The Bell Tones - The Wedding.wav
Pre-gap length 0:00:04.69
Peak level 99.8 %
Extraction speed 7.9 X
Track quality 100.0 %
Test CRC 68130676
Copy CRC 68130676
Track not present in AccurateRip database
Copy OK
Track 20
Filename C:\Rips\Various Artists - The Rama Story (1999) [FLAC]\CD1\20 - The Valentines - Lily Maebelle.wav
Pre-gap length 0:00:06.11
Peak level 99.8 %
Extraction speed 7.6 X
Track quality 100.0 %
Test CRC 5A599E6B
Copy CRC 5A599E6B
Track not present in AccurateRip database
Copy OK
Track 21
Filename C:\Rips\Various Artists - The Rama Story (1999) [FLAC]\CD1\21 - The Wrens - Betty Jean.wav
Pre-gap length 0:00:02.06
Peak level 100.0 %
Extraction speed 8.2 X
Track quality 100.0 %
Test CRC 8C4D676B
Copy CRC 8C4D676B
Track not present in AccurateRip database
Copy OK
Track 22
Filename C:\Rips\Various Artists - The Rama Story (1999) [FLAC]\CD1\22 - The Five Encores - Readin' 'Ritin' 'Rithmetic Rock 'N' Roll.wav
Pre-gap length 0:00:03.59
Peak level 100.0 %
Extraction speed 8.0 X
Track quality 100.0 %
Test CRC C98FDBE7
Copy CRC C98FDBE7
Track not present in AccurateRip database
Copy OK
Track 23
Filename C:\Rips\Various Artists - The Rama Story (1999) [FLAC]\CD1\23 - The Five Encores - One Scotch, One Bourbon, One Beer.wav
Pre-gap length 0:00:04.08
Peak level 100.0 %
Extraction speed 8.1 X
Track quality 100.0 %
Test CRC 721D9803
Copy CRC 721D9803
Track not present in AccurateRip database
Copy OK
Track 24
Filename C:\Rips\Various Artists - The Rama Story (1999) [FLAC]\CD1\24 - The Continentals - You're An Angel.wav
Pre-gap length 0:00:04.74
Peak level 99.9 %
Extraction speed 8.2 X
Track quality 100.0 %
Test CRC F4C1DE4E
Copy CRC F4C1DE4E
Track not present in AccurateRip database
Copy OK
Track 25
Filename C:\Rips\Various Artists - The Rama Story (1999) [FLAC]\CD1\25 - The Joytones - All My Love Belongs To You.wav
Pre-gap length 0:00:04.61
Peak level 99.8 %
Extraction speed 8.4 X
Track quality 100.0 %
Test CRC 7D9625CD
Copy CRC 7D9625CD
Track not present in AccurateRip database
Copy OK
Track 26
Filename C:\Rips\Various Artists - The Rama Story (1999) [FLAC]\CD1\26 - Rita Delmar - Teenage Heart.wav
Pre-gap length 0:00:02.45
Peak level 99.8 %
Extraction speed 8.3 X
Track quality 100.0 %
Test CRC 4305CABD
Copy CRC 4305CABD
Track not present in AccurateRip database
Copy OK
Track 27
Filename C:\Rips\Various Artists - The Rama Story (1999) [FLAC]\CD1\27 - The Wrens - C'est La Vie.wav
Pre-gap length 0:00:04.23
Peak level 99.7 %
Extraction speed 8.4 X
Track quality 100.0 %
Test CRC E34D3DFD
Copy CRC E34D3DFD
Track not present in AccurateRip database
Copy OK
Track 28
Filename C:\Rips\Various Artists - The Rama Story (1999) [FLAC]\CD1\28 - The Valentines - The Woo Woo Train.wav
Pre-gap length 0:00:03.69
Peak level 99.9 %
Extraction speed 8.9 X
Track quality 100.0 %
Test CRC 0AF1AABA
Copy CRC 0AF1AABA
Track not present in AccurateRip database
Copy OK
Track 29
Filename C:\Rips\Various Artists - The Rama Story (1999) [FLAC]\CD1\29 - Jimmy Wright - 2.20 A.M..wav
Peak level 99.8 %
Extraction speed 9.0 X
Track quality 100.0 %
Test CRC F85C9A57
Copy CRC F85C9A57
Track not present in AccurateRip database
Copy OK
6 track(s) accurately ripped
23 track(s) not present in the AccurateRip database
Some tracks could not be verified as accurate
No errors occurred
End of status report
==== Log checksum B1286EB6A625CF7F415DDE7331AA7E7FF0FE6ED6BB99157B592CD801E6BDF975 ====

CUE

REM GENRE Pop/Rock
REM DATE 1999
REM DISCID A212681D
REM COMMENT "ExactAudioCopy v1.0b3"
PERFORMER "Various Artists"
TITLE "The Rama Story (Disc 1)"
FILE "01 - The Crows - Gee.wav" WAVE
TRACK 01 AUDIO
TITLE "Gee"
PERFORMER "The Crows"
INDEX 01 00:00:00
TRACK 02 AUDIO
TITLE "I Was Such A Fool (To Fall In Love With You)"
PERFORMER "The Five Budds"
INDEX 00 02:10:68
FILE "02 - The Five Budds - I Was Such A Fool (To Fall In Love With You).wav" WAVE
INDEX 01 00:00:00
TRACK 03 AUDIO
TITLE "I Want Her Back"
PERFORMER "The Five Budds"
INDEX 00 03:15:12
FILE "03 - The Five Budds - I Want Her Back.wav" WAVE
INDEX 01 00:00:00
TRACK 04 AUDIO
TITLE "No Help Wanted"
PERFORMER "The Crows"
INDEX 00 02:42:28
FILE "04 - The Crows - No Help Wanted.wav" WAVE
INDEX 01 00:00:00
TRACK 05 AUDIO
TITLE "Seven Lonely Days"
PERFORMER "Viola Watkins & The Crows"
INDEX 00 02:28:30
FILE "05 - Viola Watkins & The Crows - Seven Lonely Days.wav" WAVE
INDEX 01 00:00:00
TRACK 06 AUDIO
TITLE "Be With The One You Love"
PERFORMER "Bert Keyes & His Trio"
INDEX 00 02:55:70
FILE "06 - Bert Keyes & His Trio - Be With The One You Love.wav" WAVE
INDEX 01 00:00:00
TRACK 07 AUDIO
TITLE "Real Fine Man"
PERFORMER "Viola Watkins"
INDEX 00 02:36:50
FILE "07 - Viola Watkins - Real Fine Man.wav" WAVE
INDEX 01 00:00:00
TRACK 08 AUDIO
TITLE "I Was Such A Fool (To Fall In Love With You)"
PERFORMER "Bert Keyes"
INDEX 00 02:31:25
FILE "08 - Bert Keyes - I Was Such A Fool (To Fall In Love With You).wav" WAVE
INDEX 01 00:00:00
TRACK 09 AUDIO
TITLE "Will You Remember (The Answer To Tomorrow Night)"
PERFORMER "Lonnie Johnson"
INDEX 00 02:42:45
FILE "09 - Lonnie Johnson - Will You Remember (The Answer To Tomorrow Night).wav" WAVE
INDEX 01 00:00:00
TRACK 10 AUDIO
TITLE "The Stars Will Remember"
PERFORMER "The Buccaneers"
INDEX 00 02:49:31
FILE "10 - The Buccaneers - The Stars Will Remember.wav" WAVE
INDEX 01 00:00:00
TRACK 11 AUDIO
TITLE "In The Mission Of St. Augustine"
PERFORMER "The Buccaneers"
INDEX 00 03:12:02
FILE "11 - The Buccaneers - In The Mission Of St. Augustine.wav" WAVE
INDEX 01 00:00:00
TRACK 12 AUDIO
TITLE "Too Hot To Handle"
PERFORMER "The Blue Notes"
INDEX 00 02:50:52
FILE "12 - The Blue Notes - Too Hot To Handle.wav" WAVE
INDEX 01 00:00:00
TRACK 13 AUDIO
TITLE "If My Heart Could Only Talk"
PERFORMER "The Blue Notes"
INDEX 00 01:58:52
FILE "13 - The Blue Notes - If My Heart Could Only Talk.wav" WAVE
INDEX 01 00:00:00
TRACK 14 AUDIO
TITLE "Untrue"
PERFORMER "The Crows"
INDEX 00 02:39:11
FILE "14 - The Crows - Untrue.wav" WAVE
INDEX 01 00:00:00
TRACK 15 AUDIO
TITLE "Write Me Baby"
PERFORMER "Bert Keyes"
INDEX 00 02:46:23
FILE "15 - Bert Keyes - Write Me Baby.wav" WAVE
INDEX 01 00:00:00
TRACK 16 AUDIO
TITLE "Gumbo Mambo"
PERFORMER "The Larke Sisters"
INDEX 00 02:12:74
FILE "16 - The Larke Sisters - Gumbo Mambo.wav" WAVE
INDEX 01 00:00:00
FILE "17 - The Wrens - Come Back My Love.wav" WAVE
TRACK 17 AUDIO
TITLE "Come Back My Love"
PERFORMER "The Wrens"
INDEX 01 00:00:00
TRACK 18 AUDIO
TITLE "What Can I Tell Her Now"
PERFORMER "The Bells"
INDEX 00 02:20:20
FILE "18 - The Bells - What Can I Tell Her Now.wav" WAVE
INDEX 01 00:00:00
TRACK 19 AUDIO
TITLE "The Wedding"
PERFORMER "The Bell Tones"
INDEX 00 02:25:23
FILE "19 - The Bell Tones - The Wedding.wav" WAVE
INDEX 01 00:00:00
TRACK 20 AUDIO
TITLE "Lily Maebelle"
PERFORMER "The Valentines"
INDEX 00 02:54:44
FILE "20 - The Valentines - Lily Maebelle.wav" WAVE
INDEX 01 00:00:00
TRACK 21 AUDIO
TITLE "Betty Jean"
PERFORMER "The Wrens"
INDEX 00 02:15:22
FILE "21 - The Wrens - Betty Jean.wav" WAVE
INDEX 01 00:00:00
TRACK 22 AUDIO
TITLE "Readin' 'Ritin' 'Rithmetic Rock 'N' Roll"
PERFORMER "The Five Encores"
INDEX 00 03:00:19
FILE "22 - The Five Encores - Readin' 'Ritin' 'Rithmetic Rock 'N' Roll.wav" WAVE
INDEX 01 00:00:00
TRACK 23 AUDIO
TITLE "One Scotch, One Bourbon, One Beer"
PERFORMER "The Five Encores"
INDEX 00 02:27:68
FILE "23 - The Five Encores - One Scotch, One Bourbon, One Beer.wav" WAVE
INDEX 01 00:00:00
TRACK 24 AUDIO
TITLE "You're An Angel"
PERFORMER "The Continentals"
INDEX 00 02:50:25
FILE "24 - The Continentals - You're An Angel.wav" WAVE
INDEX 01 00:00:00
TRACK 25 AUDIO
TITLE "All My Love Belongs To You"
PERFORMER "The Joytones"
INDEX 00 02:50:70
FILE "25 - The Joytones - All My Love Belongs To You.wav" WAVE
INDEX 01 00:00:00
TRACK 26 AUDIO
TITLE "Teenage Heart"
PERFORMER "Rita Delmar"
INDEX 00 02:33:41
FILE "26 - Rita Delmar - Teenage Heart.wav" WAVE
INDEX 01 00:00:00
TRACK 27 AUDIO
TITLE "C'est La Vie"
PERFORMER "The Wrens"
INDEX 00 02:23:01
FILE "27 - The Wrens - C'est La Vie.wav" WAVE
INDEX 01 00:00:00
TRACK 28 AUDIO
TITLE "The Woo Woo Train"
PERFORMER "The Valentines"
INDEX 00 02:23:63
FILE "28 - The Valentines - The Woo Woo Train.wav" WAVE
INDEX 01 00:00:00
FILE "29 - Jimmy Wright - 2.20 A.M..wav" WAVE
TRACK 29 AUDIO
TITLE "2.20 A.M."
PERFORMER "Jimmy Wright"
INDEX 01 00:00:00

CD2

1. Move Over - Jimmy Wright
2. Runaround - Valli Hinton
3. I've Got To Have You Baby - The Pretenders
4. Roll Over Beethoven - The Four Chaps
5. Alabama Rock 'N' Roll - Mabel King
6. Gee What A Boy! - The Joytones
7. Three Wishes - The Harptones
8. Symbol Of Love - Mabel King with The Royale Cita Chorus
9. Stop Knocking Rock 'N' Roll - Bob Cornegie (Kornegay)
10. Nature's Creation - The Valentines
11. They Say - The Rainbows
12. Lover - The Pretenders
13. I Love My Baby - Lillte Billy Mason
14. Hole In The Bucket (My Bucket's Got A Hole In It) - Bob Davis & The Rhythm Jesters
15. On Sunday Afternoon - The Harptones
16. My Foolish Heart - The Joytones
17. A Thousand Miles Away - The Heartbeats
18. The Memory That Followed Me Home - Alan Dean
19. Just As I Am - Patti Jerome
20. Oo Wee Baby - The Harptones
21. Wedding Bells - The Heartbeats
22. Thinking Of You - Little Billy Mason
23. Baby Take Me Back - Roc La Rue & The Three Pals
24. Don't Say Goodnight - The Valentines
25. My Steady Girl - Chuck Darty
26. Reluctantly - Chuck Darty
27. Only One - Don 'Red' Roberts
28. Everybody's Somebody's Fool - The Heartbeats
29. One Foolish Mistake - The Dorrell Sisters
30. Leave My Woman Alone - The Cleftones
31. Vacation In The Mountains - The Cleftones

EAC

Exact Audio Copy V1.0 beta 3 from 29. August 2011
EAC extraction logfile from 15. August 2014, 16:10
Various Artists / The Rama Story (Disc 2)
Used drive : TSSTcorpCDDVDW SH-224BB Adapter: 0 ID: 0
Read mode : Secure
Utilize accurate stream : Yes
Defeat audio cache : Yes
Make use of C2 pointers : No
Read offset correction : 6
Overread into Lead-In and Lead-Out : No
Fill up missing offset samples with silence : Yes
Delete leading and trailing silent blocks : No
Null samples used in CRC calculations : Yes
Used interface : Native Win32 interface for Win NT & 2000
Gap handling : Appended to previous track
Used output format : User Defined Encoder
Selected bitrate : 768 kBit/s
Quality : High
Add ID3 tag : No
Command line compressor : C:\Program Files (x86)\Exact Audio Copy\FLAC\FLAC.EXE
Additional command line options : -8 -V -T "ARTIST=%artist%" -T "TITLE=%title%" -T "ALBUM=%albumtitle%" -T "DATE=%year%" -T "TRACKNUMBER=%tracknr%" -T "TOTALTRACKS=%numtracks%" -T "GENRE=%genre%" -T "ALBUMARTIST=%albumartist%" -T "ALBUM ARTIST=%albumartist%" -T "COMMENT=EAC Secure Mode, Test & Copy, AccurateRip, FLAC -8" %source%
TOC of the extracted CD
Track | Start | Length | Start sector | End sector
---------------------------------------------------------
1 | 0:00.00 | 2:59.42 | 0 | 13466
2 | 2:59.42 | 2:06.16 | 13467 | 22932
3 | 5:05.58 | 2:30.04 | 22933 | 34186
4 | 7:35.62 | 2:25.34 | 34187 | 45095
5 | 10:01.21 | 2:43.10 | 45096 | 57330
6 | 12:44.31 | 2:08.59 | 57331 | 66989
7 | 14:53.15 | 2:38.68 | 66990 | 78907
8 | 17:32.08 | 2:50.58 | 78908 | 91715
9 | 20:22.66 | 2:31.19 | 91716 | 103059
10 | 22:54.10 | 3:08.06 | 103060 | 117165
11 | 26:02.16 | 2:32.62 | 117166 | 128627
12 | 28:35.03 | 2:37.26 | 128628 | 140428
13 | 31:12.29 | 2:03.12 | 140429 | 149665
14 | 33:15.41 | 2:27.64 | 149666 | 160754
15 | 35:43.30 | 2:39.66 | 160755 | 172745
16 | 38:23.21 | 2:29.56 | 172746 | 183976
17 | 40:53.02 | 2:28.31 | 183977 | 195107
18 | 43:21.33 | 2:32.08 | 195108 | 206515
19 | 45:53.41 | 2:36.03 | 206516 | 218218
20 | 48:29.44 | 3:08.02 | 218219 | 232320
21 | 51:37.46 | 2:50.39 | 232321 | 245109
22 | 54:28.10 | 2:35.45 | 245110 | 256779
23 | 57:03.55 | 2:05.62 | 256780 | 266216
24 | 59:09.42 | 2:31.67 | 266217 | 277608
25 | 61:41.34 | 2:16.70 | 277609 | 287878
26 | 63:58.29 | 2:02.16 | 287879 | 297044
27 | 66:00.45 | 2:28.70 | 297045 | 308214
28 | 68:29.40 | 3:02.07 | 308215 | 321871
29 | 71:31.47 | 2:02.45 | 321872 | 331066
30 | 73:34.17 | 2:22.46 | 331067 | 341762
31 | 75:56.63 | 2:08.09 | 341763 | 351371
Track 1
Filename C:\Rips\Various Artists - The Rama Story (1999) [FLAC]\CD2\01 - Jimmy Wright - Move Over.wav
Pre-gap length 0:00:02.00
Peak level 99.8 %
Extraction speed 2.7 X
Track quality 100.0 %
Test CRC 9ADAE477
Copy CRC 9ADAE477
Track not present in AccurateRip database
Copy OK
Track 2
Filename C:\Rips\Various Artists - The Rama Story (1999) [FLAC]\CD2\02 - Valli Hinton - Runaround.wav
Pre-gap length 0:00:02.58
Peak level 99.8 %
Extraction speed 2.7 X
Track quality 100.0 %
Test CRC B75F9B26
Copy CRC B75F9B26
Track not present in AccurateRip database
Copy OK
Track 3
Filename C:\Rips\Various Artists - The Rama Story (1999) [FLAC]\CD2\03 - The Pretenders - I've Got To Have You Baby.wav
Pre-gap length 0:00:02.67
Peak level 100.0 %
Extraction speed 2.0 X
Track quality 99.9 %
Test CRC E7151552
Copy CRC E7151552
Accurately ripped (confidence 1) [1FE3CF9B] (AR v1)
Copy OK
Track 4
Filename C:\Rips\Various Artists - The Rama Story (1999) [FLAC]\CD2\04 - The Four Chaps - Roll Over Beethoven.wav
Pre-gap length 0:00:01.62
Peak level 89.0 %
Extraction speed 3.0 X
Track quality 100.0 %
Test CRC 74EE48C9
Copy CRC 74EE48C9
Accurately ripped (confidence 1) [2D1D0EC7] (AR v1)
Copy OK
Track 5
Filename C:\Rips\Various Artists - The Rama Story (1999) [FLAC]\CD2\05 - Mabel King - Alabama Rock 'N' Roll.wav
Pre-gap length 0:00:02.65
Peak level 96.4 %
Extraction speed 3.2 X
Track quality 100.0 %
Test CRC 6158609C
Copy CRC 6158609C
Track not present in AccurateRip database
Copy OK
Track 6
Filename C:\Rips\Various Artists - The Rama Story (1999) [FLAC]\CD2\06 - The Joytones - Gee, What A Boy!.wav
Pre-gap length 0:00:02.09
Peak level 100.0 %
Extraction speed 2.1 X
Track quality 99.9 %
Test CRC 1049FEE1
Copy CRC 1049FEE1
Track not present in AccurateRip database
Copy OK
Track 7
Filename C:\Rips\Various Artists - The Rama Story (1999) [FLAC]\CD2\07 - The Harptones - Three Wishes.wav
Pre-gap length 0:00:01.59
Peak level 99.8 %
Extraction speed 3.5 X
Track quality 100.0 %
Test CRC 5496A829
Copy CRC 5496A829
Accurately ripped (confidence 1) [C08E39C6] (AR v1)
Copy OK
Track 8
Filename C:\Rips\Various Artists - The Rama Story (1999) [FLAC]\CD2\08 - Mabel King with The Royale Cita Chorus - Symbol Of Love.wav
Pre-gap length 0:00:03.64
Peak level 100.0 %
Extraction speed 3.6 X
Track quality 100.0 %
Test CRC 74F82C6D
Copy CRC 74F82C6D
Track not present in AccurateRip database
Copy OK
Track 9
Filename C:\Rips\Various Artists - The Rama Story (1999) [FLAC]\CD2\09 - Bob Cornegie (Kornegay) - Stop Knockin' Rock 'N' Roll.wav
Pre-gap length 0:00:02.54
Peak level 100.0 %
Extraction speed 3.7 X
Track quality 100.0 %
Test CRC EF4EF3AB
Copy CRC EF4EF3AB
Track not present in AccurateRip database
Copy OK
Track 10
Filename C:\Rips\Various Artists - The Rama Story (1999) [FLAC]\CD2\10 - The Valentines - Nature's Creation.wav
Pre-gap length 0:00:00.59
Peak level 100.0 %
Extraction speed 3.9 X
Track quality 100.0 %
Test CRC 14DCE813
Copy CRC 14DCE813
Track not present in AccurateRip database
Copy OK
Track 11
Filename C:\Rips\Various Artists - The Rama Story (1999) [FLAC]\CD2\11 - The Rainbows - They Say.wav
Pre-gap length 0:00:04.72
Peak level 89.0 %
Extraction speed 3.9 X
Track quality 100.0 %
Test CRC 0F8446FB
Copy CRC 0F8446FB
Accurately ripped (confidence 1) [EDE9A901] (AR v1)
Copy OK
Track 12
Filename C:\Rips\Various Artists - The Rama Story (1999) [FLAC]\CD2\12 - The Pretenders - Lover.wav
Pre-gap length 0:00:03.63
Peak level 99.8 %
Extraction speed 2.9 X
Track quality 99.9 %
Test CRC FCEF5073
Copy CRC FCEF5073
Track not present in AccurateRip database
Copy OK
Track 13
Filename C:\Rips\Various Artists - The Rama Story (1999) [FLAC]\CD2\13 - Little Billy Mason - I Love My Baby.wav
Pre-gap length 0:00:03.65
Peak level 99.9 %
Extraction speed 2.6 X
Track quality 99.9 %
Test CRC 38A7C17A
Copy CRC 38A7C17A
Track not present in AccurateRip database
Copy OK
Track 14
Filename C:\Rips\Various Artists - The Rama Story (1999) [FLAC]\CD2\14 - Bob Davis & The Rhythm Jesters - Hole In The Bucket (My Bucket's Got A Hole In It).wav
Pre-gap length 0:00:03.14
Peak level 100.0 %
Extraction speed 4.2 X
Track quality 100.0 %
Test CRC D3DC5D00
Copy CRC D3DC5D00
Track not present in AccurateRip database
Copy OK
Track 15
Filename C:\Rips\Various Artists - The Rama Story (1999) [FLAC]\CD2\15 - The Harptones - On Sunday Afternoon.wav
Pre-gap length 0:00:04.48
Peak level 99.8 %
Extraction speed 4.3 X
Track quality 100.0 %
Test CRC 328F760E
Copy CRC 328F760E
Accurately ripped (confidence 1) [21F41B30] (AR v1)
Copy OK
Track 16
Filename C:\Rips\Various Artists - The Rama Story (1999) [FLAC]\CD2\16 - The Joytones - My Foolish Heart.wav
Pre-gap length 0:00:05.05
Peak level 99.8 %
Extraction speed 3.1 X
Track quality 99.9 %
Test CRC 95926A21
Copy CRC 95926A21
Accurately ripped (confidence 1) [302D6AB2] (AR v1)
Copy OK
Track 17
Filename C:\Rips\Various Artists - The Rama Story (1999) [FLAC]\CD2\17 - The Heartbeats - A Thousand Miles Away.wav
Pre-gap length 0:00:03.42
Peak level 99.8 %
Extraction speed 3.1 X
Track quality 99.9 %
Test CRC C052BA90
Copy CRC C052BA90
Accurately ripped (confidence 1) [D2872D0F] (AR v1)
Copy OK
Track 18
Filename C:\Rips\Various Artists - The Rama Story (1999) [FLAC]\CD2\18 - Alan Dean - The Memory That Followed Me Home.wav
Pre-gap length 0:00:03.73
Peak level 99.8 %
Extraction speed 4.6 X
Track quality 100.0 %
Test CRC 1572EA3C
Copy CRC 1572EA3C
Track not present in AccurateRip database
Copy OK
Track 19
Filename C:\Rips\Various Artists - The Rama Story (1999) [FLAC]\CD2\19 - Patti Jerome - Just As I Am.wav
Pre-gap length 0:00:05.02
Peak level 99.8 %
Extraction speed 3.3 X
Track quality 99.9 %
Test CRC CB71BD03
Copy CRC CB71BD03
Track not present in AccurateRip database
Copy OK
Track 20
Filename C:\Rips\Various Artists - The Rama Story (1999) [FLAC]\CD2\20 - The Harptones - Oo Wee Baby.wav
Pre-gap length 0:00:04.08
Peak level 99.8 %
Extraction speed 4.9 X
Track quality 100.0 %
Test CRC 086C4F4A
Copy CRC 086C4F4A
Accurately ripped (confidence 1) [494712B6] (AR v1)
Copy OK
Track 21
Filename C:\Rips\Various Artists - The Rama Story (1999) [FLAC]\CD2\21 - The Heartbeats - Wedding Bells.wav
Pre-gap length 0:00:04.40
Peak level 99.8 %
Extraction speed 5.0 X
Track quality 100.0 %
Test CRC 7F6F5F1A
Copy CRC 7F6F5F1A
Track not present in AccurateRip database
Copy OK
Track 22
Filename C:\Rips\Various Artists - The Rama Story (1999) [FLAC]\CD2\22 - Little Billy Mason - Thinking Of You.wav
Pre-gap length 0:00:02.52
Peak level 100.0 %
Extraction speed 5.0 X
Track quality 100.0 %
Test CRC 0AF74AF1
Copy CRC 0AF74AF1
Track not present in AccurateRip database
Copy OK
Track 23
Filename C:\Rips\Various Artists - The Rama Story (1999) [FLAC]\CD2\23 - Roc La Rue & The Three Pals - Baby Take Me Back.wav
Pre-gap length 0:00:03.73
Peak level 99.8 %
Extraction speed 3.2 X
Track quality 99.9 %
Test CRC 83633C68
Copy CRC 83633C68
Track not present in AccurateRip database
Copy OK
Track 24
Filename C:\Rips\Various Artists - The Rama Story (1999) [FLAC]\CD2\24 - The Valentines - Don't Say Goodnight.wav
Pre-gap length 0:00:05.11
Peak level 99.9 %
Extraction speed 5.1 X
Track quality 100.0 %
Test CRC 56DE06CC
Copy CRC 56DE06CC
Track not present in AccurateRip database
Copy OK
Track 25
Filename C:\Rips\Various Artists - The Rama Story (1999) [FLAC]\CD2\25 - Chuck Darty - My Steady Girl.wav
Pre-gap length 0:00:03.42
Peak level 99.8 %
Extraction speed 5.0 X
Track quality 100.0 %
Test CRC 8F95E320
Copy CRC 8F95E320
Track not present in AccurateRip database
Copy OK
Track 26
Filename C:\Rips\Various Artists - The Rama Story (1999) [FLAC]\CD2\26 - Chuck Darty - Reluctantly.wav
Peak level 100.0 %
Extraction speed 5.0 X
Track quality 100.0 %
Test CRC 7B1C1437
Copy CRC 7B1C1437
Track not present in AccurateRip database
Copy OK
Track 27
Filename C:\Rips\Various Artists - The Rama Story (1999) [FLAC]\CD2\27 - Don 'Red' Roberts - Only One.wav
Pre-gap length 0:00:01.18
Peak level 99.8 %
Extraction speed 5.3 X
Track quality 100.0 %
Test CRC 4FC4096A
Copy CRC 4FC4096A
Track not present in AccurateRip database
Copy OK
Track 28
Filename C:\Rips\Various Artists - The Rama Story (1999) [FLAC]\CD2\28 - The Heartbeats - Everybody's Somebody's Fool.wav
Pre-gap length 0:00:02.36
Peak level 100.0 %
Extraction speed 5.5 X
Track quality 100.0 %
Test CRC 7288614D
Copy CRC 7288614D
Track not present in AccurateRip database
Copy OK
Track 29
Filename C:\Rips\Various Artists - The Rama Story (1999) [FLAC]\CD2\29 - The Dorrell Sisiters - One Foolish Mistake.wav
Pre-gap length 0:00:03.32
Peak level 100.0 %
Extraction speed 5.2 X
Track quality 100.0 %
Test CRC C78864E9
Copy CRC C78864E9
Track not present in AccurateRip database
Copy OK
Track 30
Filename C:\Rips\Various Artists - The Rama Story (1999) [FLAC]\CD2\30 - The Cleftones - Leave My Woman Along.wav
Pre-gap length 0:00:04.11
Peak level 99.8 %
Extraction speed 5.4 X
Track quality 100.0 %
Test CRC 832DDDF2
Copy CRC 832DDDF2
Accurately ripped (confidence 1) [3F859C41] (AR v1)
Copy OK
Track 31
Filename C:\Rips\Various Artists - The Rama Story (1999) [FLAC]\CD2\31 - The Cleftones - Vacation In The Mountains.wav
Pre-gap length 0:00:00.45
Peak level 99.8 %
Extraction speed 3.4 X
Track quality 99.9 %
Test CRC F80E4B92
Copy CRC F80E4B92
Track not present in AccurateRip database
Copy OK
9 track(s) accurately ripped
22 track(s) not present in the AccurateRip database
Some tracks could not be verified as accurate
No errors occurred
End of status report
==== Log checksum 4B92771E224B1A1A636946B24E4234801F1A305EE66EDC7BC1FC8D8724A457FC ====

CUE

REM GENRE R&B
REM DATE 1999
REM DISCID C7124C1F
REM COMMENT "ExactAudioCopy v1.0b3"
PERFORMER "Various Artists"
TITLE "The Rama Story (Disc 2)"
FILE "01 - Jimmy Wright - Move Over.wav" WAVE
TRACK 01 AUDIO
TITLE "Move Over"
PERFORMER "Jimmy Wright"
INDEX 01 00:00:00
TRACK 02 AUDIO
TITLE "Runaround"
PERFORMER "Valli Hinton"
INDEX 00 02:56:59
FILE "02 - Valli Hinton - Runaround.wav" WAVE
INDEX 01 00:00:00
TRACK 03 AUDIO
TITLE "I've Got To Have You Baby"
PERFORMER "The Pretenders"
INDEX 00 02:03:24
FILE "03 - The Pretenders - I've Got To Have You Baby.wav" WAVE
INDEX 01 00:00:00
TRACK 04 AUDIO
TITLE "Roll Over Beethoven"
PERFORMER "The Four Chaps"
INDEX 00 02:28:17
FILE "04 - The Four Chaps - Roll Over Beethoven.wav" WAVE
INDEX 01 00:00:00
TRACK 05 AUDIO
TITLE "Alabama Rock 'N' Roll"
PERFORMER "Mabel King"
INDEX 00 02:22:44
FILE "05 - Mabel King - Alabama Rock 'N' Roll.wav" WAVE
INDEX 01 00:00:00
TRACK 06 AUDIO
TITLE "Gee, What A Boy!"
PERFORMER "The Joytones"
INDEX 00 02:41:01
FILE "06 - The Joytones - Gee, What A Boy!.wav" WAVE
INDEX 01 00:00:00
TRACK 07 AUDIO
TITLE "Three Wishes"
PERFORMER "The Harptones"
INDEX 00 02:07:00
FILE "07 - The Harptones - Three Wishes.wav" WAVE
INDEX 01 00:00:00
TRACK 08 AUDIO
TITLE "Symbol Of Love"
PERFORMER "Mabel King with The Royale Cita Chorus"
INDEX 00 02:35:04
FILE "08 - Mabel King with The Royale Cita Chorus - Symbol Of Love.wav" WAVE
INDEX 01 00:00:00
TRACK 09 AUDIO
TITLE "Stop Knockin' Rock 'N' Roll"
PERFORMER "Bob Cornegie (Kornegay)"
INDEX 00 02:48:04
FILE "09 - Bob Cornegie (Kornegay) - Stop Knockin' Rock 'N' Roll.wav" WAVE
INDEX 01 00:00:00
TRACK 10 AUDIO
TITLE "Nature's Creation"
PERFORMER "The Valentines"
INDEX 00 02:30:35
FILE "10 - The Valentines - Nature's Creation.wav" WAVE
INDEX 01 00:00:00
TRACK 11 AUDIO
TITLE "They Say"
PERFORMER "The Rainbows"
INDEX 00 03:03:09
FILE "11 - The Rainbows - They Say.wav" WAVE
INDEX 01 00:00:00
TRACK 12 AUDIO
TITLE "Lover"
PERFORMER "The Pretenders"
INDEX 00 02:28:74
FILE "12 - The Pretenders - Lover.wav" WAVE
INDEX 01 00:00:00
TRACK 13 AUDIO
TITLE "I Love My Baby"
PERFORMER "Little Billy Mason"
INDEX 00 02:33:36
FILE "13 - Little Billy Mason - I Love My Baby.wav" WAVE
INDEX 01 00:00:00
TRACK 14 AUDIO
TITLE "Hole In The Bucket (My Bucket's Got A Hole In It)"
PERFORMER "Bob Davis & The Rhythm Jesters"
INDEX 00 01:59:73
FILE "14 - Bob Davis & The Rhythm Jesters - Hole In The Bucket (My Bucket's Got A Hole In It).wav" WAVE
INDEX 01 00:00:00
TRACK 15 AUDIO
TITLE "On Sunday Afternoon"
PERFORMER "The Harptones"
INDEX 00 02:23:16
FILE "15 - The Harptones - On Sunday Afternoon.wav" WAVE
INDEX 01 00:00:00
TRACK 16 AUDIO
TITLE "My Foolish Heart"
PERFORMER "The Joytones"
INDEX 00 02:34:61
FILE "16 - The Joytones - My Foolish Heart.wav" WAVE
INDEX 01 00:00:00
TRACK 17 AUDIO
TITLE "A Thousand Miles Away"
PERFORMER "The Heartbeats"
INDEX 00 02:26:14
FILE "17 - The Heartbeats - A Thousand Miles Away.wav" WAVE
INDEX 01 00:00:00
TRACK 18 AUDIO
TITLE "The Memory That Followed Me Home"
PERFORMER "Alan Dean"
INDEX 00 02:24:33
FILE "18 - Alan Dean - The Memory That Followed Me Home.wav" WAVE
INDEX 01 00:00:00
TRACK 19 AUDIO
TITLE "Just As I Am"
PERFORMER "Patti Jerome"
INDEX 00 02:27:06
FILE "19 - Patti Jerome - Just As I Am.wav" WAVE
INDEX 01 00:00:00
TRACK 20 AUDIO
TITLE "Oo Wee Baby"
PERFORMER "The Harptones"
INDEX 00 02:31:70
FILE "20 - The Harptones - Oo Wee Baby.wav" WAVE
INDEX 01 00:00:00
TRACK 21 AUDIO
TITLE "Wedding Bells"
PERFORMER "The Heartbeats"
INDEX 00 03:03:37
FILE "21 - The Heartbeats - Wedding Bells.wav" WAVE
INDEX 01 00:00:00
TRACK 22 AUDIO
TITLE "Thinking Of You"
PERFORMER "Little Billy Mason"
INDEX 00 02:47:62
FILE "22 - Little Billy Mason - Thinking Of You.wav" WAVE
INDEX 01 00:00:00
TRACK 23 AUDIO
TITLE "Baby Take Me Back"
PERFORMER "Roc La Rue & The Three Pals"
INDEX 00 02:31:47
FILE "23 - Roc La Rue & The Three Pals - Baby Take Me Back.wav" WAVE
INDEX 01 00:00:00
TRACK 24 AUDIO
TITLE "Don't Say Goodnight"
PERFORMER "The Valentines"
INDEX 00 02:00:51
FILE "24 - The Valentines - Don't Say Goodnight.wav" WAVE
INDEX 01 00:00:00
TRACK 25 AUDIO
TITLE "My Steady Girl"
PERFORMER "Chuck Darty"
INDEX 00 02:28:25
FILE "25 - Chuck Darty - My Steady Girl.wav" WAVE
INDEX 01 00:00:00
FILE "26 - Chuck Darty - Reluctantly.wav" WAVE
TRACK 26 AUDIO
TITLE "Reluctantly"
PERFORMER "Chuck Darty"
INDEX 01 00:00:00
TRACK 27 AUDIO
TITLE "Only One"
PERFORMER "Don 'Red' Roberts"
INDEX 00 02:00:73
FILE "27 - Don 'Red' Roberts - Only One.wav" WAVE
INDEX 01 00:00:00
TRACK 28 AUDIO
TITLE "Everybody's Somebody's Fool"
PERFORMER "The Heartbeats"
INDEX 00 02:26:34
FILE "28 - The Heartbeats - Everybody's Somebody's Fool.wav" WAVE
INDEX 01 00:00:00
TRACK 29 AUDIO
TITLE "One Foolish Mistake"
PERFORMER "The Dorrell Sisiters"
INDEX 00 02:58:50
FILE "29 - The Dorrell Sisiters - One Foolish Mistake.wav" WAVE
INDEX 01 00:00:00
TRACK 30 AUDIO
TITLE "Leave My Woman Along"
PERFORMER "The Cleftones"
INDEX 00 01:58:34
FILE "30 - The Cleftones - Leave My Woman Along.wav" WAVE
INDEX 01 00:00:00
TRACK 31 AUDIO
TITLE "Vacation In The Mountains"
PERFORMER "The Cleftones"
INDEX 00 02:22:01
FILE "31 - The Cleftones - Vacation In The Mountains.wav" WAVE
INDEX 01 00:00:00
Профиль [ЛС]
Показать сообщения:    

Текущее время: 18-Окт 23:49

Часовой пояс: UTC ± 0



Вы не можете начинать темы
Вы не можете отвечать на сообщения
Вы не можете редактировать свои сообщения
Вы не можете удалять свои сообщения
Вы не можете голосовать в опросах
Вы не можете прикреплять файлы к сообщениям
Вы не можете скачивать файлы