Статистика раздачи
Скачал: [ 1 ]
 
     
 
 

MAGNAT ®

Пол:
Мужской
Стаж:
2 года 6 месяцев
Сообщений:
11685

Откуда: Москва

Holding Things Together - The Merle Haggard Songbook

Жанр: Rock, Rock & Roll. Folk-Rock
Носитель: CD
Страна-производитель диска (релиза): UK
Год издания: 2019
Издатель (лейбл): Ace Records
Номер по каталогу: CDTOP 1546
Страна исполнителя (группы): USA
Аудиокодек: FLAC (*.flac)
Тип рипа: tracks+.cue
Источник: Сеть
Наличие сканов в содержимом раздачи: да

Треклист

1. Swinging Doors - Jerry Lee Lewis
2. Okie From Muskogee - Roy Rogers
3. Irma Jackson - Barrence Whitfield
4. Just Because You Can't Be Mine - Bettye Swann
5. Silver Wings - The Knitters
6. The Legend of Bonnie and Clyde - Tammy Wynette
7. White Line Fever - The Flying Burrito Brothers
8. Kern River - Dave Alvin
9. Honky Tonk Night Time Man - Lynyrd Skynyrd
10. Life in Prison - The Byrds
11. Holding Things Together - Merle Haggard
12. Everybody's Had the Blues - Brenda Lee
13. Mama Tried - The Grateful Dead
14. The Farmer's Daughter - Chip Taylor with Ghost Train
15. I Take a Lot of Pride in What I Am - Dean Martin
16. Life's Like Poetry - Dolly Parton
17. (Today) I Started Loving You Again - Wynn Stewart
18. Sing Me Back Home - the Everly Brothers
19. I Can't Hold Myself in Line - Elvin Bishop
20. Rainbow Stew - Country Joe McDonald
21. Living with the Shades Pulled Down - George Thorogood & The Destroyers
22. I'd Rather Be Gone - Hank Williams JR
23. I Must Be Somebody Else You've Known - International Submarine Band
24. The Bottle Let Me Down - Emmylou Harris

Лог создания рипа

Exact Audio Copy V1.3 from 2. September 2016
EAC extraction logfile from 4. July 2019, 18:44
Various Artists / Holding Things Together: The Merle Haggard Songbook
Used drive : TSSTcorpCDDVDW SH-224BB Adapter: 1 ID: 0
Read mode : Secure
Utilize accurate stream : Yes
Defeat audio cache : Yes
Make use of C2 pointers : No
Read offset correction : 6
Overread into Lead-In and Lead-Out : No
Fill up missing offset samples with silence : Yes
Delete leading and trailing silent blocks : No
Null samples used in CRC calculations : Yes
Used interface : Native Win32 interface for Win NT & 2000
Gap handling : Appended to previous track
Used output format : User Defined Encoder
Selected bitrate : 768 kBit/s
Quality : High
Add ID3 tag : No
Command line compressor : C:\Program Files (x86)\Exact Audio Copy\Flac\flac.exe
Additional command line options : -8 -V -T "ARTIST=%artist%" -T "TITLE=%title%" -T "ALBUM=%albumtitle%" -T "DATE=%year%" -T "TRACKNUMBER=%tracknr%" -T "TOTALTRACKS=%numtracks%" -T "GENRE=%genre%" -T "ALBUMARTIST=%albumartist%" -T "ALBUM ARTIST=%albumartist%" -T "COMMENT=EAC Secure Mode, Test & Copy, AccurateRip, FLAC -8" %source%
TOC of the extracted CD
Track | Start | Length | Start sector | End sector
---------------------------------------------------------
1 | 0:00.00 | 2:51.00 | 0 | 12824
2 | 2:51.00 | 2:51.66 | 12825 | 25715
3 | 5:42.66 | 2:53.24 | 25716 | 38714
4 | 8:36.15 | 2:35.02 | 38715 | 50341
5 | 11:11.17 | 2:14.20 | 50342 | 60411
6 | 13:25.37 | 2:03.18 | 60412 | 69654
7 | 15:28.55 | 3:15.44 | 69655 | 84323
8 | 18:44.24 | 4:07.12 | 84324 | 102860
9 | 22:51.36 | 4:04.24 | 102861 | 121184
10 | 26:55.60 | 2:47.00 | 121185 | 133709
11 | 29:42.60 | 2:59.45 | 133710 | 147179
12 | 32:42.30 | 2:41.15 | 147180 | 159269
13 | 35:23.45 | 2:43.71 | 159270 | 171565
14 | 38:07.41 | 3:28.27 | 171566 | 187192
15 | 41:35.68 | 3:14.04 | 187193 | 201746
16 | 44:49.72 | 1:49.53 | 201747 | 209974
17 | 46:39.50 | 2:49.64 | 209975 | 222713
18 | 49:29.39 | 3:58.55 | 222714 | 240618
19 | 53:28.19 | 2:41.66 | 240619 | 252759
20 | 56:10.10 | 3:11.54 | 252760 | 267138
21 | 59:21.64 | 3:25.59 | 267139 | 282572
22 | 62:47.48 | 2:41.49 | 282573 | 294696
23 | 65:29.22 | 2:16.01 | 294697 | 304897
24 | 67:45.23 | 3:16.64 | 304898 | 319661
Track 1
Filename C:\Rips\Various Artists - Holding Things Together The Merle Haggard Songbook (2019) [FLAC]\01 - Jerry Lee Lewis - Swinging Doors.wav
Pre-gap length 0:00:02.00
Peak level 95.4 %
Extraction speed 3.3 X
Track quality 99.9 %
Test CRC 715FEF35
Copy CRC 715FEF35
Track not present in AccurateRip database
Copy OK
Track 2
Filename C:\Rips\Various Artists - Holding Things Together The Merle Haggard Songbook (2019) [FLAC]\02 - Roy Rogers - Okie From Muskogee.wav
Pre-gap length 0:00:02.15
Peak level 95.4 %
Extraction speed 4.6 X
Track quality 100.0 %
Test CRC E9D0FCE3
Copy CRC E9D0FCE3
Track not present in AccurateRip database
Copy OK
Track 3
Filename C:\Rips\Various Artists - Holding Things Together The Merle Haggard Songbook (2019) [FLAC]\03 - Barrence Whitfield - Irma Jackson.wav
Pre-gap length 0:00:01.69
Peak level 95.4 %
Extraction speed 4.8 X
Track quality 100.0 %
Test CRC 56A7EB8D
Copy CRC 56A7EB8D
Track not present in AccurateRip database
Copy OK
Track 4
Filename C:\Rips\Various Artists - Holding Things Together The Merle Haggard Songbook (2019) [FLAC]\04 - Bettye Swann - Just Because You Can't Be Mine.wav
Pre-gap length 0:00:01.60
Peak level 95.4 %
Extraction speed 3.7 X
Track quality 99.9 %
Test CRC D2E6F572
Copy CRC D2E6F572
Track not present in AccurateRip database
Copy OK
Track 5
Filename C:\Rips\Various Artists - Holding Things Together The Merle Haggard Songbook (2019) [FLAC]\05 - The Knitters - Silver Wings.wav
Pre-gap length 0:00:01.40
Peak level 95.4 %
Extraction speed 5.1 X
Track quality 100.0 %
Test CRC 027B80C1
Copy CRC 027B80C1
Track not present in AccurateRip database
Copy OK
Track 6
Filename C:\Rips\Various Artists - Holding Things Together The Merle Haggard Songbook (2019) [FLAC]\06 - Tammy Wynette - The Legend Of Bonnie And Clyde.wav
Pre-gap length 0:00:02.01
Peak level 95.4 %
Extraction speed 5.2 X
Track quality 100.0 %
Test CRC 288EA251
Copy CRC 288EA251
Track not present in AccurateRip database
Copy OK
Track 7
Filename C:\Rips\Various Artists - Holding Things Together The Merle Haggard Songbook (2019) [FLAC]\07 - The Flying Burrito Bros - White Line Fever.wav
Pre-gap length 0:00:01.61
Peak level 87.2 %
Extraction speed 5.6 X
Track quality 100.0 %
Test CRC D90A7EB4
Copy CRC D90A7EB4
Track not present in AccurateRip database
Copy OK
Track 8
Filename C:\Rips\Various Artists - Holding Things Together The Merle Haggard Songbook (2019) [FLAC]\08 - Dave Alvin - Kern River.wav
Pre-gap length 0:00:01.63
Peak level 95.4 %
Extraction speed 6.1 X
Track quality 100.0 %
Test CRC 5217E4A4
Copy CRC 5217E4A4
Track not present in AccurateRip database
Copy OK
Track 9
Filename C:\Rips\Various Artists - Holding Things Together The Merle Haggard Songbook (2019) [FLAC]\09 - Lynyrd Skynyrd - Honky Tonk Night Time Man.wav
Pre-gap length 0:00:01.54
Peak level 94.1 %
Extraction speed 5.3 X
Track quality 99.9 %
Test CRC EBE28AF8
Copy CRC EBE28AF8
Track not present in AccurateRip database
Copy OK
Track 10
Filename C:\Rips\Various Artists - Holding Things Together The Merle Haggard Songbook (2019) [FLAC]\10 - The Byrds - Life In Prison.wav
Pre-gap length 0:00:01.42
Peak level 95.4 %
Extraction speed 4.8 X
Track quality 99.9 %
Test CRC 9B9A74C7
Copy CRC 9B9A74C7
Track not present in AccurateRip database
Copy OK
Track 11
Filename C:\Rips\Various Artists - Holding Things Together The Merle Haggard Songbook (2019) [FLAC]\11 - Merle Haggard & The Strangers - Holding Things Together.wav
Pre-gap length 0:00:01.73
Peak level 95.4 %
Extraction speed 5.1 X
Track quality 99.9 %
Test CRC B4A528C4
Copy CRC B4A528C4
Track not present in AccurateRip database
Copy OK
Track 12
Filename C:\Rips\Various Artists - Holding Things Together The Merle Haggard Songbook (2019) [FLAC]\12 - Brenda Lee - Everybody's Had The Blues.wav
Pre-gap length 0:00:01.55
Peak level 95.1 %
Extraction speed 6.7 X
Track quality 100.0 %
Test CRC 7838DCA3
Copy CRC 7838DCA3
Track not present in AccurateRip database
Copy OK
Track 13
Filename C:\Rips\Various Artists - Holding Things Together The Merle Haggard Songbook (2019) [FLAC]\13 - The Grateful Dead - Mama Tried.wav
Pre-gap length 0:00:02.03
Peak level 95.4 %
Extraction speed 6.8 X
Track quality 100.0 %
Test CRC 7E728C9C
Copy CRC 7E728C9C
Track not present in AccurateRip database
Copy OK
Track 14
Filename C:\Rips\Various Artists - Holding Things Together The Merle Haggard Songbook (2019) [FLAC]\14 - Chip Taylor with Ghost Train - Farmer's Daughter.wav
Pre-gap length 0:00:01.70
Peak level 95.4 %
Extraction speed 7.4 X
Track quality 100.0 %
Test CRC C09FDE1C
Copy CRC C09FDE1C
Track not present in AccurateRip database
Copy OK
Track 15
Filename C:\Rips\Various Artists - Holding Things Together The Merle Haggard Songbook (2019) [FLAC]\15 - Dean Martin - I Take A Lot Of Pride In What I Am.wav
Pre-gap length 0:00:01.43
Peak level 95.4 %
Extraction speed 7.4 X
Track quality 100.0 %
Test CRC 1F6D848C
Copy CRC 1F6D848C
Track not present in AccurateRip database
Copy OK
Track 16
Filename C:\Rips\Various Artists - Holding Things Together The Merle Haggard Songbook (2019) [FLAC]\16 - Dolly Parton - Life's Like Poetry.wav
Pre-gap length 0:00:01.21
Peak level 95.4 %
Extraction speed 6.7 X
Track quality 100.0 %
Test CRC 5169A4B5
Copy CRC 5169A4B5
Track not present in AccurateRip database
Copy OK
Track 17
Filename C:\Rips\Various Artists - Holding Things Together The Merle Haggard Songbook (2019) [FLAC]\17 - Wynn Stewart - Today I Started Loving You Again.wav
Pre-gap length 0:00:01.59
Peak level 95.5 %
Extraction speed 7.4 X
Track quality 100.0 %
Test CRC 7AC4A64E
Copy CRC 7AC4A64E
Track not present in AccurateRip database
Copy OK
Track 18
Filename C:\Rips\Various Artists - Holding Things Together The Merle Haggard Songbook (2019) [FLAC]\18 - The Everly Brothers - Sing Me Back Home.wav
Pre-gap length 0:00:01.61
Peak level 95.4 %
Extraction speed 6.4 X
Track quality 99.9 %
Test CRC A72714A3
Copy CRC A72714A3
Track not present in AccurateRip database
Copy OK
Track 19
Filename C:\Rips\Various Artists - Holding Things Together The Merle Haggard Songbook (2019) [FLAC]\19 - Elvin Bishop - I Can't Hold Myself In Line.wav
Pre-gap length 0:00:01.57
Peak level 93.1 %
Extraction speed 7.5 X
Track quality 100.0 %
Test CRC 086829CE
Copy CRC 086829CE
Track not present in AccurateRip database
Copy OK
Track 20
Filename C:\Rips\Various Artists - Holding Things Together The Merle Haggard Songbook (2019) [FLAC]\20 - Country Joe McDonald - Rainbow Stew.wav
Pre-gap length 0:00:01.51
Peak level 89.9 %
Extraction speed 8.1 X
Track quality 100.0 %
Test CRC 5AEF017C
Copy CRC 5AEF017C
Track not present in AccurateRip database
Copy OK
Track 21
Filename C:\Rips\Various Artists - Holding Things Together The Merle Haggard Songbook (2019) [FLAC]\21 - George Thorogood & The Destroyers - Living With The Shades Pulled Down.wav
Pre-gap length 0:00:01.69
Peak level 95.4 %
Extraction speed 8.2 X
Track quality 100.0 %
Test CRC DCF1D3EF
Copy CRC DCF1D3EF
Track not present in AccurateRip database
Copy OK
Track 22
Filename C:\Rips\Various Artists - Holding Things Together The Merle Haggard Songbook (2019) [FLAC]\22 - Hank Williams Jr - I'd Rather Be Gone.wav
Pre-gap length 0:00:01.59
Peak level 95.4 %
Extraction speed 6.0 X
Track quality 99.9 %
Test CRC 6987F7C4
Copy CRC 6987F7C4
Track not present in AccurateRip database
Copy OK
Track 23
Filename C:\Rips\Various Artists - Holding Things Together The Merle Haggard Songbook (2019) [FLAC]\23 - The International Submarine Band - I Must Be Somebody Else You've Known.wav
Pre-gap length 0:00:01.62
Peak level 95.4 %
Extraction speed 7.2 X
Track quality 100.0 %
Test CRC C6F81AA6
Copy CRC C6F81AA6
Track not present in AccurateRip database
Copy OK
Track 24
Filename C:\Rips\Various Artists - Holding Things Together The Merle Haggard Songbook (2019) [FLAC]\24 - Emmylou Harris - The Bottle Let Me Down.wav
Pre-gap length 0:00:01.43
Peak level 95.5 %
Extraction speed 6.7 X
Track quality 99.9 %
Test CRC B24DF09F
Copy CRC B24DF09F
Track not present in AccurateRip database
Copy OK
None of the tracks are present in the AccurateRip database
No errors occurred
End of status report
---- CUETools DB Plugin V2.1.6
[CTDB TOCID: RhU9oNdrvrjcJ3yde6pl1MaxIiQ-] disk not present in database
Submit result: RhU9oNdrvrjcJ3yde6pl1MaxIiQ- has been uploaded
==== Log checksum DE7A0F1F790F6626E0B958CE4372645288F47EEDADC1B1617614233BA7373559 ====

Содержание индексной карты (.CUE)

REM GENRE Country
REM DATE 2019
REM DISCID 6610A618
REM COMMENT "ExactAudioCopy v1.3"
PERFORMER "Various Artists"
TITLE "Holding Things Together: The Merle Haggard Songbook"
REM COMPOSER ""
FILE "01 - Jerry Lee Lewis - Swinging Doors.wav" WAVE
TRACK 01 AUDIO
TITLE "Swinging Doors"
PERFORMER "Jerry Lee Lewis"
REM COMPOSER ""
INDEX 01 00:00:00
TRACK 02 AUDIO
TITLE "Okie From Muskogee"
PERFORMER "Roy Rogers"
REM COMPOSER ""
INDEX 00 02:48:60
FILE "02 - Roy Rogers - Okie From Muskogee.wav" WAVE
INDEX 01 00:00:00
TRACK 03 AUDIO
TITLE "Irma Jackson"
PERFORMER "Barrence Whitfield"
REM COMPOSER ""
INDEX 00 02:49:72
FILE "03 - Barrence Whitfield - Irma Jackson.wav" WAVE
INDEX 01 00:00:00
TRACK 04 AUDIO
TITLE "Just Because You Can't Be Mine"
PERFORMER "Bettye Swann"
REM COMPOSER ""
INDEX 00 02:51:39
FILE "04 - Bettye Swann - Just Because You Can't Be Mine.wav" WAVE
INDEX 01 00:00:00
TRACK 05 AUDIO
TITLE "Silver Wings"
PERFORMER "The Knitters"
REM COMPOSER ""
INDEX 00 02:33:37
FILE "05 - The Knitters - Silver Wings.wav" WAVE
INDEX 01 00:00:00
TRACK 06 AUDIO
TITLE "The Legend Of Bonnie And Clyde"
PERFORMER "Tammy Wynette"
REM COMPOSER ""
INDEX 00 02:12:19
FILE "06 - Tammy Wynette - The Legend Of Bonnie And Clyde.wav" WAVE
INDEX 01 00:00:00
TRACK 07 AUDIO
TITLE "White Line Fever"
PERFORMER "The Flying Burrito Bros"
REM COMPOSER ""
INDEX 00 02:01:32
FILE "07 - The Flying Burrito Bros - White Line Fever.wav" WAVE
INDEX 01 00:00:00
TRACK 08 AUDIO
TITLE "Kern River"
PERFORMER "Dave Alvin"
REM COMPOSER ""
INDEX 00 03:13:56
FILE "08 - Dave Alvin - Kern River.wav" WAVE
INDEX 01 00:00:00
TRACK 09 AUDIO
TITLE "Honky Tonk Night Time Man"
PERFORMER "Lynyrd Skynyrd"
REM COMPOSER ""
INDEX 00 04:05:33
FILE "09 - Lynyrd Skynyrd - Honky Tonk Night Time Man.wav" WAVE
INDEX 01 00:00:00
TRACK 10 AUDIO
TITLE "Life In Prison"
PERFORMER "The Byrds"
REM COMPOSER ""
INDEX 00 04:02:57
FILE "10 - The Byrds - Life In Prison.wav" WAVE
INDEX 01 00:00:00
TRACK 11 AUDIO
TITLE "Holding Things Together"
PERFORMER "Merle Haggard & The Strangers"
REM COMPOSER ""
INDEX 00 02:45:02
FILE "11 - Merle Haggard & The Strangers - Holding Things Together.wav" WAVE
INDEX 01 00:00:00
TRACK 12 AUDIO
TITLE "Everybody's Had The Blues"
PERFORMER "Brenda Lee"
REM COMPOSER ""
INDEX 00 02:57:65
FILE "12 - Brenda Lee - Everybody's Had The Blues.wav" WAVE
INDEX 01 00:00:00
TRACK 13 AUDIO
TITLE "Mama Tried"
PERFORMER "The Grateful Dead"
REM COMPOSER ""
INDEX 00 02:39:12
FILE "13 - The Grateful Dead - Mama Tried.wav" WAVE
INDEX 01 00:00:00
TRACK 14 AUDIO
TITLE "Farmer's Daughter"
PERFORMER "Chip Taylor with Ghost Train"
REM COMPOSER ""
INDEX 00 02:42:01
FILE "14 - Chip Taylor with Ghost Train - Farmer's Daughter.wav" WAVE
INDEX 01 00:00:00
TRACK 15 AUDIO
TITLE "I Take A Lot Of Pride In What I Am"
PERFORMER "Dean Martin"
REM COMPOSER ""
INDEX 00 03:26:59
FILE "15 - Dean Martin - I Take A Lot Of Pride In What I Am.wav" WAVE
INDEX 01 00:00:00
TRACK 16 AUDIO
TITLE "Life's Like Poetry"
PERFORMER "Dolly Parton"
REM COMPOSER ""
INDEX 00 03:12:58
FILE "16 - Dolly Parton - Life's Like Poetry.wav" WAVE
INDEX 01 00:00:00
TRACK 17 AUDIO
TITLE "Today I Started Loving You Again"
PERFORMER "Wynn Stewart"
REM COMPOSER ""
INDEX 00 01:47:69
FILE "17 - Wynn Stewart - Today I Started Loving You Again.wav" WAVE
INDEX 01 00:00:00
TRACK 18 AUDIO
TITLE "Sing Me Back Home"
PERFORMER "The Everly Brothers"
REM COMPOSER ""
INDEX 00 02:48:03
FILE "18 - The Everly Brothers - Sing Me Back Home.wav" WAVE
INDEX 01 00:00:00
TRACK 19 AUDIO
TITLE "I Can't Hold Myself In Line"
PERFORMER "Elvin Bishop"
REM COMPOSER ""
INDEX 00 03:56:73
FILE "19 - Elvin Bishop - I Can't Hold Myself In Line.wav" WAVE
INDEX 01 00:00:00
TRACK 20 AUDIO
TITLE "Rainbow Stew"
PERFORMER "Country Joe McDonald"
REM COMPOSER ""
INDEX 00 02:40:15
FILE "20 - Country Joe McDonald - Rainbow Stew.wav" WAVE
INDEX 01 00:00:00
TRACK 21 AUDIO
TITLE "Living With The Shades Pulled Down"
PERFORMER "George Thorogood & The Destroyers"
REM COMPOSER ""
INDEX 00 03:09:60
FILE "21 - George Thorogood & The Destroyers - Living With The Shades Pulled Down.wav" WAVE
INDEX 01 00:00:00
TRACK 22 AUDIO
TITLE "I'd Rather Be Gone"
PERFORMER "Hank Williams Jr"
REM COMPOSER ""
INDEX 00 03:24:00
FILE "22 - Hank Williams Jr - I'd Rather Be Gone.wav" WAVE
INDEX 01 00:00:00
TRACK 23 AUDIO
TITLE "I Must Be Somebody Else You've Known"
PERFORMER "The International Submarine Band"
REM COMPOSER ""
INDEX 00 02:39:62
FILE "23 - The International Submarine Band - I Must Be Somebody Else You've Known.wav" WAVE
INDEX 01 00:00:00
TRACK 24 AUDIO
TITLE "The Bottle Let Me Down"
PERFORMER "Emmylou Harris"
REM COMPOSER ""
INDEX 00 02:14:33
FILE "24 - Emmylou Harris - The Bottle Let Me Down.wav" WAVE
INDEX 01 00:00:00
Профиль [ЛС]
Показать сообщения:    

Текущее время: 18-Окт 23:54

Часовой пояс: UTC ± 0



Вы не можете начинать темы
Вы не можете отвечать на сообщения
Вы не можете редактировать свои сообщения
Вы не можете удалять свои сообщения
Вы не можете голосовать в опросах
Вы не можете прикреплять файлы к сообщениям
Вы не можете скачивать файлы