Статистика раздачи
Скачал: [ 1 ]
 
     
 
 

benson26 ®

Пол:
Не указан
Стаж:
1 год 8 месяцев
Сообщений:
257

Pussycat / The Best of Pussyсat
Жанр: Pop
Носитель: CD
Страна-производитель диска (релиза): Австралия
Год издания: 2008
Издатель (лейбл): EMI
Номер по каталогу: 7948822
Страна исполнителя (группы): Голландия
Аудиокодек: FLAC (*.flac)
Тип рипа: image+.cue
Продолжительность: 00:51:12
Источник: собственный рип
Наличие сканов в содержимом раздачи: да
Треклист:
01. Mississippi [0:04:35.20]
02. Georgie [0:02:29.55]
03. Smile [0:03:49.30]
04. My Broken Souvenirs [0:03:52.10]
05. Just a Woman [0:03:46.00]
06. Mexicali Lane [0:03:12.40]
07. If You Ever Come to Amsterdam [0:04:44.50]
08. Wet Day in September [0:03:36.12]
09. Bad Boy [0:03:41.40]
10. Hey Joe [0:03:46.23]
11. I'll Be Your Woman [0:04:40.42]
12. It's the Same Old Song [0:03:32.40]
13. You Don't Know [0:02:13.15]
14. Goodbye to Lovin' [0:03:12.23]

Лог создания рипа

Exact Audio Copy V1.3 from 2. September 2016
Отчёт EAC об извлечении, выполненном 7. апреля 2020, 23:13
Pussyсat / The Best of Pussyсat
Дисковод: PLEXTOR DVDR PX-755A Adapter: 1 ID: 1
Режим чтения : Достоверность
Использование точного потока : Да
Отключение кэша аудио : Да
Использование указателей C2 : Нет
Коррекция смещения при чтении : 30
Способность читать области Lead-in и Lead-out : Нет
Заполнение пропущенных сэмплов тишиной : Да
Удаление блоков с тишиной в начале и конце : Нет
При вычислениях CRC использовались нулевые сэмплы : Да
Интерфейс : Встроенный Win32-интерфейс для Win NT/2000
Выходной формат : Пользовательский кодировщик
Выбранный битрейт : 128 kBit/s
Качество : Высокий
Добавление ID3-тега : Нет
Утилита сжатия : C:\Program Files (x86)\Exact Audio Copy\Flac\flac.exe
Дополнительные параметры : -V -8 -T "Date=%year%" -T "Genre=%genre%" %source%
TOC извлечённого CD
Трек | Старт | Длительность | Начальный сектор | Конечный сектор
---------------------------------------------------------------------
1 | 0:00.00 | 4:35.20 | 0 | 20644
2 | 4:35.20 | 2:29.55 | 20645 | 31874
3 | 7:05.00 | 3:49.30 | 31875 | 49079
4 | 10:54.30 | 3:52.10 | 49080 | 66489
5 | 14:46.40 | 3:46.00 | 66490 | 83439
6 | 18:32.40 | 3:12.40 | 83440 | 97879
7 | 21:45.05 | 4:44.50 | 97880 | 119229
8 | 26:29.55 | 3:36.12 | 119230 | 135441
9 | 30:05.67 | 3:41.40 | 135442 | 152056
10 | 33:47.32 | 3:46.23 | 152057 | 169029
11 | 37:33.55 | 4:40.42 | 169030 | 190071
12 | 42:14.22 | 3:32.40 | 190072 | 206011
13 | 45:46.62 | 2:13.15 | 206012 | 216001
14 | 48:00.02 | 3:12.23 | 216002 | 230424
Характеристики диапазона извлечения и сообщения об ошибках
Выбранный диапазон
Имя файла D:\РАЗДАЧА\Pussyсat -The Best of Pussyсat - 1996\Pussyсat - The Best of Pussyсat.wav
Пиковый уровень 100.0 %
Скорость извлечения 7.9 X
Качество диапазона 99.9 %
CRC теста DB00A939
CRC копии DB00A939
Копирование... OK
Ошибок не произошло
AccurateRip: сводка
Трек 1 : извлечено точно (доверие 2) [C05028A8] (AR v2)
Трек 2 : извлечено точно (доверие 2) [3AF47B29] (AR v2)
Трек 3 : извлечено точно (доверие 2) [FA6F7952] (AR v2)
Трек 4 : извлечено точно (доверие 2) [FD3C23E9] (AR v2)
Трек 5 : извлечено точно (доверие 2) [ABA50078] (AR v2)
Трек 6 : извлечено точно (доверие 2) [C1394968] (AR v2)
Трек 7 : извлечено точно (доверие 2) [6786A9E8] (AR v2)
Трек 8 : извлечено точно (доверие 2) [BA0D984E] (AR v2)
Трек 9 : извлечено точно (доверие 2) [5D47351D] (AR v2)
Трек 10 : извлечено точно (доверие 2) [57382A71] (AR v2)
Трек 11 : извлечено точно (доверие 2) [3229D524] (AR v2)
Трек 12 : извлечено точно (доверие 2) [57BEB957] (AR v2)
Трек 13 : извлечено точно (доверие 2) [D2396EF5] (AR v2)
Трек 14 : извлечено точно (доверие 2) [2832E729] (AR v2)
Все треки извлечены точно
Конец отчёта
---- CUETools DB Plugin V2.1.6
[CTDB TOCID: agvuCwpNKoAfk8_wwxyQwGSm9F8-] found
Submit result: agvuCwpNKoAfk8_wwxyQwGSm9F8- has been confirmed
Track | CTDB Status
1 | (14/15) Accurately ripped
2 | (14/15) Accurately ripped
3 | (14/15) Accurately ripped
4 | (14/15) Accurately ripped
5 | (14/15) Accurately ripped
6 | (14/15) Accurately ripped
7 | (14/15) Accurately ripped
8 | (14/15) Accurately ripped
9 | (14/15) Accurately ripped
10 | (14/15) Accurately ripped
11 | (14/15) Accurately ripped
12 | (14/15) Accurately ripped
13 | (14/15) Accurately ripped
14 | (14/15) Accurately ripped
==== Контрольная сумма отчёта 90C81498F67657C7B00B4AEF0B682BB426DD1DD83CFBBEACF93E5BB6306F3340 ====

Содержание индексной карты (.CUE)

REM GENRE Pop
REM DATE 1996
REM DISCID CE0C000E
REM COMMENT "ExactAudioCopy v1.3"
PERFORMER "Pussyсat"
TITLE "The Best of Pussyсat"
REM COMPOSER ""
FILE "Pussyсat - The Best of Pussyсat.flac" WAVE
TRACK 01 AUDIO
TITLE "Mississippi"
PERFORMER "Pussyсat"
REM COMPOSER ""
INDEX 01 00:00:00
TRACK 02 AUDIO
TITLE "Georgie"
PERFORMER "Pussyсat"
REM COMPOSER ""
INDEX 00 04:32:22
INDEX 01 04:35:20
TRACK 03 AUDIO
TITLE "Smile"
PERFORMER "Pussyсat"
REM COMPOSER ""
INDEX 00 07:02:07
INDEX 01 07:05:00
TRACK 04 AUDIO
TITLE "My Broken Souvenirs"
PERFORMER "Pussyсat"
REM COMPOSER ""
INDEX 00 10:52:40
INDEX 01 10:54:30
TRACK 05 AUDIO
TITLE "Just a Woman"
PERFORMER "Pussyсat"
REM COMPOSER ""
INDEX 00 14:44:12
INDEX 01 14:46:40
TRACK 06 AUDIO
TITLE "Mexicali Lane"
PERFORMER "Pussyсat"
REM COMPOSER ""
INDEX 00 18:30:22
INDEX 01 18:32:40
TRACK 07 AUDIO
TITLE "If You Ever Come to Amsterdam"
PERFORMER "Pussyсat"
REM COMPOSER ""
INDEX 00 21:41:57
INDEX 01 21:45:05
TRACK 08 AUDIO
TITLE "Wet Day in September"
PERFORMER "Pussyсat"
REM COMPOSER ""
INDEX 00 26:25:67
INDEX 01 26:29:55
TRACK 09 AUDIO
TITLE "Bad Boy"
PERFORMER "Pussyсat"
REM COMPOSER ""
INDEX 00 30:03:05
INDEX 01 30:05:67
TRACK 10 AUDIO
TITLE "Hey Joe"
PERFORMER "Pussyсat"
REM COMPOSER ""
INDEX 00 33:45:27
INDEX 01 33:47:32
TRACK 11 AUDIO
TITLE "I'll Be Your Woman"
PERFORMER "Pussyсat"
REM COMPOSER ""
INDEX 00 37:30:62
INDEX 01 37:33:55
TRACK 12 AUDIO
TITLE "It's the Same Old Song"
PERFORMER "Pussyсat"
REM COMPOSER ""
INDEX 00 42:11:25
INDEX 01 42:14:22
TRACK 13 AUDIO
TITLE "You Don't Know"
PERFORMER "Pussyсat"
REM COMPOSER ""
INDEX 00 45:44:45
INDEX 01 45:46:62
TRACK 14 AUDIO
TITLE "Goodbye to Lovin'"
PERFORMER "Pussyсat"
REM COMPOSER ""
INDEX 00 47:57:25
INDEX 01 48:00:02
Профиль [ЛС]
Показать сообщения:    

Текущее время: 18-Окт 23:52

Часовой пояс: UTC ± 0



Вы не можете начинать темы
Вы не можете отвечать на сообщения
Вы не можете редактировать свои сообщения
Вы не можете удалять свои сообщения
Вы не можете голосовать в опросах
Вы не можете прикреплять файлы к сообщениям
Вы не можете скачивать файлы