BitTorrent клиенты



Легенда о Коловрате (Джаник Файзиев, Иван Шурховецкий) [2017, история, боевик, фэнтези, BDRip-AVC]

Ответить на тему
Статистика раздачи
Размер:  746 MB   |    Зарегистрирован:  11 месяцев 17 дней   |    Скачан:  0 раз

Полного источника не было: Никогда

 
   
 
 
Автор Сообщение

Болт ®

Пол: Не указан

Стаж: 1 год

Сообщений: 464

Создавать темы 27-Фев-2018 15:47

[Цитировать]

Легенда о Коловрате
«Героем может стать каждый»
Жанр: история, боевик, фэнтези
Год выпуска: 2017
Продолжительность: 01:57:52
Субтитры: русские (форсированные)
Режиссер: Джаник Файзиев, Иван Шурховецкий
В ролях: Илья Малаков, Александр Цой, Александр Ильин мл., Юлия Хлынина, Тимофей Трибунцев, Алексей Серебряков, Игорь Савочкин, Полина Чернышова, Илья Антоненко, Георгий Пицхелаури, Ольга Дроздова, Мария Фомина
Описание:
XIII век. Русь раздроблена и вот-вот падет на колени перед ханом Золотой Орды Батыем. Испепеляя города и заливая русские земли кровью, захватчики не встречают серьезного сопротивления, и лишь один воин бросает им вызов. Молодой рязанский витязь Евпатий Коловрат возглавляет отряд смельчаков, чтобы отомстить за свою любовь и за свою родину. Его отвага поразит даже Батыя, а его имя навсегда останется в памяти народа. Воин, ставший легендой. Подвиг, сохранившийся в веках.

Автор рипа: stalkerok
Сэмпл
Качество видео: BDRip-AVC [Легенда о Коловрате (2017) Blu-ray Disc [GER] -BLUEBIRD]
Формат видео: MKV
Видео: AVC, 819 Кбит/сек, 726x304 (2.40:1), 23,976 кадр/сек
Аудио: AAC, 64 Кбит/сек, 48,0 КГц, 2 канала - русский Blu-ray GER
Навигация по главам: есть

x264/MediaInfo

---[Information] [25.02.2018 14:14:21] x264 [info]: frame I:1392 Avg QP:20.27 size: 31018
---[Information] [25.02.2018 14:14:21] x264 [info]: frame P:42810 Avg QP:25.02 size: 8540
---[Information] [25.02.2018 14:14:21] x264 [info]: frame B:125362 Avg QP:26.47 size: 2511
Общее
Уникальный идентификатор : 229291229531260407375000471968022965153 (0xAC7FE26E3240DA39805B4BE5BE36ABA1)
Полное имя : O:\!Rips\Legenda o Kolovrate (2017)\Legenda.o.Kolovrate.2017.BDRip-AVC..RUS.stalkerok.new-team.mkv
Формат : Matroska
Версия формата : Version 4 / Version 2
Размер файла : 746 Мбайт
Продолжительность : 1 ч. 57 м.
Общий поток : 884 Кбит/сек
Название фильма : Легенда о Коловрате (2017) (Rip by stalkerok)
Дата кодирования : UTC 2018-02-25 13:15:29
Программа кодирования : mkvmerge v8.6.1 ('Flying') 64bit
Библиотека кодирования : libebml v1.3.3 + libmatroska v1.4.4
Видео
Идентификатор : 2
Формат : AVC
Формат/Информация : Advanced Video Codec
Профиль формата : High@L4.1
Параметр CABAC формата : Да
Параметр ReFrames формата : 12 кадров
Идентификатор кодека : V_MPEG4/ISO/AVC
Продолжительность : 1 ч. 57 м.
Битрейт : 819 Кбит/сек
Ширина : 726 пикселей
Высота : 304 пикселя
Соотношение сторон : 2,40:1
Режим частоты кадров : Постоянный
Частота кадров : 23,976 (24000/1001) кадра/сек
Цветовое пространство : YUV
Субдискретизация насыщенности : 4:2:0
Битовая глубина : 8 бит
Тип развёртки : Прогрессивная
Бит/(Пиксели*Кадры) : 0.155
Размер потока : 690 Мбайт (93%)
Заголовок : Легенда о Коловрате (2017) (Rip by stalkerok)
Библиотека кодирования : x264 core 152 r2851kMod ba24899
Настройки программы : cabac=1 / ref=12 / deblock=1:-3:-2 / analyse=0x3:0x133 / me=umh / subme=11 / psy=1 / fade_compensate=0.00 / psy_rd=1.00:0.00 / mixed_ref=1 / me_range=32 / chroma_me=1 / trellis=2 / 8x8dct=1 / cqm=0 / deadzone=21,11 / fast_pskip=0 / chroma_qp_offset=-2 / threads=9 / lookahead_threads=2 / sliced_threads=0 / nr=0 / decimate=0 / interlaced=0 / bluray_compat=0 / constrained_intra=0 / bframes=16 / b_pyramid=2 / b_adapt=2 / b_bias=0 / direct=3 / weightb=1 / open_gop=0 / weightp=2 / keyint=240 / keyint_min=23 / scenecut=40 / intra_refresh=0 / rc_lookahead=60 / rc=2pass / mbtree=0 / bitrate=819 / ratetol=1.0 / qcomp=0.65 / qpmin=0 / qpmax=69 / qpstep=4 / cplxblur=20.0 / qblur=0.5 / vbv_maxrate=50000 / vbv_bufsize=62500 / nal_hrd=none / filler=0 / ip_ratio=1.40 / pb_ratio=1.30 / aq=3:1.00 / zones=162213,169563,q=36
Default : Да
Forced : Нет
Аудио
Идентификатор : 3
Формат : AAC
Формат/Информация : Advanced Audio Codec
Профиль формата : HE-AAC / LC
Идентификатор кодека : A_AAC
Продолжительность : 1 ч. 57 м.
Битрейт : 64,0 Кбит/сек
Каналы : 2 канала
Расположение каналов : Front: L R
Частота : 48,0 КГц / 24,0 КГц
Частота кадров : 23,438 кадра/сек (1024 spf)
Метод сжатия : С потерями
Задержка видео : 31 мс.
Размер потока : 54,0 Мбайт (7%)
Язык : Russian
Default : Да
Forced : Нет
Текст
Идентификатор : 1
Формат : UTF-8
Идентификатор кодека : S_TEXT/UTF8
Идентификатор кодека/Информация : UTF-8 Plain Text
Продолжительность : 1 ч. 43 м.
Битрейт : 0 бит/сек
Count of elements : 2
Размер потока : 57,0 байт (0%)
Заголовок : Forced
Язык : Russian
Default : Да
Forced : Нет
Меню
00:00:00.000 : en:Chapter 1
00:08:35.097 : en:Chapter 2
00:18:09.338 : en:Chapter 3
00:28:31.918 : en:Chapter 4
00:37:28.454 : en:Chapter 5
00:47:46.822 : en:Chapter 6
00:59:16.302 : en:Chapter 7
01:10:23.761 : en:Chapter 8
01:17:08.373 : en:Chapter 9
01:31:40.411 : en:Chapter 10
01:40:22.516 : en:Chapter 11
01:47:39.244 : en:Chapter 12

Скриншоты

[cybertorrent.ru].t18288.torrent 
Торрент: Зарегистрирован [ 2018-02-27 15:47 ] · C192B92BBE7BAC7C6C24AB8B219C3D51DC4E4E88

Скачать .torrent

Скачать

15 KB

Статус: проверено
Скачан: 0 раз
Размер: 746 MB
terms.php
[Профиль] [ЛС]
Показать сообщения:    
Ответить на тему

Текущее время: 17-Фев 09:07

Часовой пояс: UTC + 3



Вы не можете начинать темы
Вы не можете отвечать на сообщения
Вы не можете редактировать свои сообщения
Вы не можете удалять свои сообщения
Вы не можете голосовать в опросах
Вы не можете прикреплять файлы к сообщениям
Вы можете скачивать файлы