BitTorrent клиенты



(world, ethnic, gamelan) [cd] Various - Java - Pays Sunda- Musiques Savantes: 1. Musique et Chants Classiques (1995) & 2. L'art du Gamelan Degung (1996) , FLAC (tracks+.cue), lossless

Ответить на тему
Статистика раздачи
Размер:  666 MB   |    Зарегистрирован:  11 месяцев 22 дня   |    Скачан:  0 раз

Полного источника не было: Никогда

 
   
 
 
Автор Сообщение

manyak ®

Пол: Не указан

Стаж: 1 год

Сообщений: 943

Создавать темы 01-Мар-2018 10:13

[Цитировать]

(world, ethnic, gamelan) [cd] Various - Java - Pays Sunda- Musiques Savantes: 1. Musique et Chants Classiques (1995) & 2. L'art du Gamelan Degung (1996) , FLAC (tracks+.cue), lossless

Java - Pays Sunda- Musiques Savantes
1. Musique et Chants Classiques (1995)
2. L'art du Gamelan Degung (1996)
Жанр:world, ethnic, gamelan
Издатель (лейбл):OCORA Radio France
Формат: FLAC (tracks+.cue)
Битрейт аудио: lossless
Источник: what.cd

1. Musique et Chants Classiques (1995)




1. Musique et Chants Classiques (1995)

1 Beber Layar ("Déployer les voiles"), Kembang bungur ("Fleur de l'arbre bungur") 10'04
2 Palwa (nom propre), Lalayaran ("Promenade en voilier") 11'41
3 Rancag : Pancanati (nom propre), Bayubud (nom de lieu), Mangari (nom de lieu), Liwung ("L'Inquiétude") ; Kawih : Sumarambah ("Coeur empli de souvenirs") 14'18
4 Rancag : Bayubud (nom de lieu), Liwung ("L'Inquiétude") ; Kawih : bungur ("L'arbre bungur") 9'21
5 Rancag : Panyawang ("Repos à ciel ouvert"), Pamekaran ("Epanouissement") ; Kawih : Samar-samar ("Images estompées") 7'17
6 Sinyur (nom d'une structure musicale), Samarangan ("Selon ses désirs") 6'35
7 Rancag : Lor-loran ("Vers le Nord"), Erang-Baron (intraduisible) ; Kawih : Tablo (nom d'une structure musicale) 12'02

.log

Exact Audio Copy V1.0 beta 3 from 29. August 2011
EAC extraction logfile from 16. April 2014, 20:48
Java-PaysSunda(RadioFrance-1) / Java - Pays Sunda: Musiques savantes 1- Musique et Chants Classiques
Used drive : Optiarc DVD+-RW AD-7230S Adapter: 0 ID: 2
Read mode : Secure
Utilize accurate stream : Yes
Defeat audio cache : Yes
Make use of C2 pointers : No
Read offset correction : 48
Overread into Lead-In and Lead-Out : No
Fill up missing offset samples with silence : Yes
Delete leading and trailing silent blocks : No
Null samples used in CRC calculations : Yes
Used interface : Native Win32 interface for Win NT & 2000
Gap handling : Appended to previous track
Used output format : User Defined Encoder
Selected bitrate : 1024 kBit/s
Quality : High
Add ID3 tag : No
Command line compressor : C:\Program Files (x86)\FLAC\flac.exe
Additional command line options : -8 -V -T "ARTIST=%artist%" -T "TITLE=%title%" -T "ALBUM=%albumtitle%" -T "DATE=%year%" -T "TRACKNUMBER=%tracknr%" -T "GENRE=%genre%" -T "PERFORMER=%albuminterpret%" -T "COMPOSER=%composer%" %haslyrics%--tag-from-file=LYRICS="%lyricsfile%"%haslyrics% -T "ALBUMARTIST=%albumartist%" -T "DISCNUMBER=%cdnumber%" -T "TOTALDISCS=%totalcds%" -T "TOTALTRACKS=%numtracks%" -T "COMMENT=%comment%" %source% -o %dest%
TOC of the extracted CD
Track | Start | Length | Start sector | End sector
---------------------------------------------------------
1 | 0:00.32 | 10:05.50 | 32 | 45456
2 | 10:06.07 | 11:43.25 | 45457 | 98206
3 | 21:49.32 | 14:20.38 | 98207 | 162744
4 | 36:09.70 | 9:23.37 | 162745 | 205006
5 | 45:33.32 | 7:18.63 | 205007 | 237919
6 | 52:52.20 | 6:36.62 | 237920 | 267681
7 | 59:29.07 | 12:07.25 | 267682 | 322231
Track 1
Filename J:\[aaaADD\Java - Pays Sunda - Musiques savantes 1 - f\01 - Uking Sukri - Beber Layar, Kembang Bungur.wav
Pre-gap length 0:00:02.42
Peak level 60.3 %
Extraction speed 2.8 X
Track quality 100.0 %
Test CRC 363DF0FD
Copy CRC 363DF0FD
Track not present in AccurateRip database
Copy OK
Track 2
Filename J:\[aaaADD\Java - Pays Sunda - Musiques savantes 1 - f\02 - Uking Sukri - Palwa, Lalayaran.wav
Peak level 68.7 %
Extraction speed 3.6 X
Track quality 100.0 %
Test CRC C17801E9
Copy CRC C17801E9
Track not present in AccurateRip database
Copy OK
Track 3
Filename J:\[aaaADD\Java - Pays Sunda - Musiques savantes 1 - f\03 - Dadang Purnaman - Rancang - Pancaniti, Bayubud, Mangari, Liwung; Kawih - Sumarambah.wav
Peak level 55.6 %
Extraction speed 4.1 X
Track quality 99.9 %
Test CRC B5F1D8C0
Copy CRC B5F1D8C0
Track not present in AccurateRip database
Copy OK
Track 4
Filename J:\[aaaADD\Java - Pays Sunda - Musiques savantes 1 - f\04 - Apung S. Wiratmada - Rancang - Bayubud, Liwung; Kawih - Bungur.wav
Peak level 64.6 %
Extraction speed 4.7 X
Track quality 100.0 %
Test CRC A5931FBD
Copy CRC A5931FBD
Track not present in AccurateRip database
Copy OK
Track 5
Filename J:\[aaaADD\Java - Pays Sunda - Musiques savantes 1 - f\05 - Ono Sukarna - Rancang - Panyawang, Pamekaran; Kawih - Samarsamar.wav
Peak level 78.5 %
Extraction speed 4.9 X
Track quality 100.0 %
Test CRC 64EDDF51
Copy CRC 64EDDF51
Track not present in AccurateRip database
Copy OK
Track 6
Filename J:\[aaaADD\Java - Pays Sunda - Musiques savantes 1 - f\06 - Ono Sukarna - Sinyur, Samarangan.wav
Peak level 95.4 %
Extraction speed 5.1 X
Track quality 100.0 %
Test CRC 79A93473
Copy CRC 79A93473
Track not present in AccurateRip database
Copy OK
Track 7
Filename J:\[aaaADD\Java - Pays Sunda - Musiques savantes 1 - f\07 - Uking Sukri - Rancang - Lor-loran, Erang barong; Kawih - Tablo.wav
Peak level 72.4 %
Extraction speed 5.6 X
Track quality 100.0 %
Test CRC B4EA4148
Copy CRC B4EA4148
Track not present in AccurateRip database
Copy OK
None of the tracks are present in the AccurateRip database
No errors occurred
End of status report
==== Log checksum 16E11B725A2A675462FC23114BB7D9019478CCD2A89DC1E40D04984B0578CF92 ====

.cue

REM GENRE Other
REM DATE 1995
REM DISCID 5110C807
REM COMMENT "ExactAudioCopy v1.0b3"
CATALOG 0000000000000
PERFORMER "Java-PaysSunda(RadioFrance-1)"
TITLE "Java - Pays Sunda: Musiques savantes 1- Musique et Chants Classiques"
FILE "01 - Uking Sukri - Beber Layar, Kembang Bungur.wav" WAVE
TRACK 01 AUDIO
TITLE "Beber Layar, Kembang Bungur"
PERFORMER "Uking Sukri"
PREGAP 00:00:32
INDEX 01 00:00:00
FILE "02 - Uking Sukri - Palwa, Lalayaran.wav" WAVE
TRACK 02 AUDIO
TITLE "Palwa, Lalayaran"
PERFORMER "Uking Sukri"
INDEX 01 00:00:00
FILE "03 - Dadang Purnaman - Rancang - Pancaniti, Bayubud, Mangari, Liwung; Kawih - Sumarambah.wav" WAVE
TRACK 03 AUDIO
TITLE "Rancang : Pancaniti, Bayubud, Mangari, Liwung; Kawih : Sumarambah"
PERFORMER "Dadang Purnaman"
INDEX 01 00:00:00
FILE "04 - Apung S. Wiratmada - Rancang - Bayubud, Liwung; Kawih - Bungur.wav" WAVE
TRACK 04 AUDIO
TITLE "Rancang : Bayubud, Liwung; Kawih : Bungur"
PERFORMER "Apung S. Wiratmada"
INDEX 01 00:00:00
FILE "05 - Ono Sukarna - Rancang - Panyawang, Pamekaran; Kawih - Samarsamar.wav" WAVE
TRACK 05 AUDIO
TITLE "Rancang : Panyawang, Pamekaran; Kawih : Samarsamar"
PERFORMER "Ono Sukarna"
INDEX 01 00:00:00
FILE "06 - Ono Sukarna - Sinyur, Samarangan.wav" WAVE
TRACK 06 AUDIO
TITLE "Sinyur, Samarangan"
PERFORMER "Ono Sukarna"
INDEX 01 00:00:00
FILE "07 - Uking Sukri - Rancang - Lor-loran, Erang barong; Kawih - Tablo.wav" WAVE
TRACK 07 AUDIO
TITLE "Rancang : Lor-loran, Erang barong; Kawih : Tablo"
PERFORMER "Uking Sukri"
INDEX 01 00:00:00
http://gamelan.free.fr/cd951101.htm

2. L'art du Gamelan Degung (1996)




2. L'art du Gamelan Degung (1996)

1 Catrik ("Le Disciple") 6'26
2 Sangku ratu ("Le Glaive du roi") 6'17
3 Lalayaran ("Promenade en voilier") 6'20
4 Renggong buyut ("La Danse interdite") 3'52
5 Pajajaran (Nom de l'ancien royaume hindouisИ) 6'50
6 Jipang Lontang, Beber Layar (Geste de danse d'un prince et "DИployer les voiles") 6'07
7 Lengser Midang ("Le DИlИguИ de la population parИ du costume de cour") 11'37
8 Purbasaka (Musique du thИБtre dansИ) 5'56
9 Jipang Parwa (Nom d'un personnage) 5'19
10 Maya Selas (Nom d'une belle jeune fille ИtrangХre) 4'01
11 Ujung Laut ("Le Rivage") 3'47
12 Karang ulun ("Le Rocher magique") 5'20

.accurip

[CUETools log; Date: 25/12/15 06:06:23; Version: 2.1.4]
Offset applied: -11
[CTDB TOCID: Sr78xh32SugFU.DZXjL4ELT0U4A-] found.
Track | CTDB Status
1 | (1/1) Accurately ripped
2 | (1/1) Accurately ripped
3 | (1/1) Accurately ripped
4 | (1/1) Accurately ripped
5 | (1/1) Accurately ripped
6 | (1/1) Accurately ripped
7 | (1/1) Accurately ripped
8 | (1/1) Accurately ripped
9 | (1/1) Accurately ripped
10 | (1/1) Accurately ripped
11 | (1/1) Accurately ripped
12 | (1/1) Accurately ripped
[AccurateRip ID: 0021921e-0138c54c-b210e60c] found.
Track [ CRC | V2 ] Status
01 [28f73a95|ca627b19] (0+0/1) No match
02 [e7fbf7e0|a13e4855] (0+0/1) No match
03 [0dc3abdf|8889c102] (0+0/1) No match
04 [6a07ca3c|af92e755] (0+0/1) No match
05 [b646ad3d|d19f0d80] (0+0/1) No match
06 [7c7a2807|34faa8e0] (0+0/1) No match
07 [3e3e492b|cb5035b2] (0+0/1) No match
08 [c3d212bb|7e102789] (0+0/1) No match
09 [21e99208|87adb835] (0+0/1) No match
10 [c42c4777|fcc09215] (0+0/1) No match
11 [b64652b4|98745aa4] (0+0/1) No match
12 [b6e6f29a|6e6f525d] (0+0/1) No match
Offsetted by -1404:
01 [1cd53cfa] (1/1) Accurately ripped
02 [a057148d] (1/1) Accurately ripped
03 [99c24f83] (1/1) Accurately ripped
04 [6a1c9a21] (1/1) Accurately ripped
05 [85465d1b] (1/1) Accurately ripped
06 [75b5a649] (1/1) Accurately ripped
07 [57db910b] (1/1) Accurately ripped
08 [ebe8ff77] (1/1) Accurately ripped
09 [d3c0d63f] (1/1) Accurately ripped
10 [5c04ebbf] (1/1) Accurately ripped
11 [a0c44bd5] (1/1) Accurately ripped
12 [f3a9cc1b] (1/1) Accurately ripped
Track Peak [ CRC32 ] [W/O NULL]
-- 94.9 [0481D4A6] [32AEECE0]
01 71.1 [5ACA1C0C] [331B651A]
02 83.4 [D5C6CD7A] [5C175A9F]
03 70.3 [CC1A1A5B] [33789F3D]
04 87.1 [7BA695FD] [A3D44ACB]
05 93.3 [34A8619A] [17738473]
06 87.3 [5D945E2C] [638E9714]
07 94.9 [2414537D] [82178C6E]
08 89.3 [769141FD] [E248F04D]
09 77.1 [5F14847F] [8A54C451]
10 88.7 [90B7A456] [E4014646]
11 87.8 [51CEB1A4] [0FFF2101]
12 84.7 [0FFACBD4] [D3CCB41C]
http://gamelan.free.fr/cd960502.htm
другие релизы
[cybertorrent.ru].t21294.torrent 
Торрент: Зарегистрирован [ 2018-03-01 10:15 ] · 623204FE555C612C65664C89EFE2B4C1D4BD7EAD

Скачать .torrent

Скачать

16 KB

Статус: проверено
Скачан: 0 раз
Размер: 666 MB
terms.php
[Профиль] [ЛС]
Показать сообщения:    
Ответить на тему

Текущее время: 23-Фев 15:27

Часовой пояс: UTC + 3



Вы не можете начинать темы
Вы не можете отвечать на сообщения
Вы не можете редактировать свои сообщения
Вы не можете удалять свои сообщения
Вы не можете голосовать в опросах
Вы не можете прикреплять файлы к сообщениям
Вы можете скачивать файлы