Статистика раздачи
Размер:  1,62 GB   |    Зарегистрирован:  5 месяцев 8 дней   |    Скачан:  0 раз
DL-List: Нет

Полного источника не было: Никогда

 
     
 
 

MAGNAT ®

Пол:
Мужской
Стаж:
1 год 8 месяцев
Сообщений:
9096

Александр Македонский / Alexander the Great
Дата/Год выпуска: 2014
Страна: Германия, Gruppe 5 Filmproduktion for ZDF, Arte
Жанр: Документальный, история
Продолжительность: 2 х ~ 00:43:37
Перевод: Профессиональный (двухголосый закадровый)
Доп. инфо о переводе: СВ-Дубль
Русские субтитры: есть
Формат субтитров: softsub (SRT)
Доп. информация о субтитрах: СВ-Дубль
Режиссер: Мартин Карасо Мендес / Martin Carazo Mendez
Телеканал: Культура
Описание: Александр Македонский – сияющий свет Древней Греции. Сын царя Древней Македонии стал величайшим завоевателем всех времен. Никто не ожидал, что кто-то попытается завоевать весь мир и что ему это почти удастся. Он был первым европейцем, основавшим империю, которая раскинулась от Средиземноморья до границ изведанного мира. Боевая слава ему была дорога, как сама жизнь. Война стала для него священной миссией. Он появился на исторической сцене как освободитель, и мечтал об империи, где народы будут мирно сосуществовать – с ним во главе. Очень немногие люди оказали такое влияние на историю, как Александр Македонский.
качество: DVB
формат: MKV
Видео: 720x576 (16:9) AVC (H.264) Main@L3, ~ 2372 kbps, 25 fps
Аудио: Русский 48 kHz, MPEG Layer 2, 2 ch, ~192.00 kbps avg

Список выпусков/серий

01. Путь к власти / The Path to Power
История Александра начинается с легенды… Она гласит, что боги возвестили смертным о рождении великого героя. В IV веке до нашей эры в Греции происходили радикальные перемены. Хотя кто-то еще верил в мифы и божественное провидение, другие уже прибегали к научным достижениям. Эти новые устремления зародились в крупных городах, и прежде всего – в Афинах, где установилась демократия, и политику определяли граждане. Родина Александра находилась в провинции, вдали от передовых центров, к северу от горы Олимп…
02. До конца света / Until the End of the World
В неспокойные времена отец назначил 16-летнего Александра соправителем. После убийства отца он стал царем, а благодаря своим союзникам – самым могущественным человеком в Греции. Его боевой поход против царя Дария уподобился битве Давида и Голиафа... Александр, как и легендарный герой Ахилл, стремился обеспечить грекам триумф. Весной 334 года до н.э. Александр и 37 тысяч воинов со всей Греции переправились через пролив Геллеспонт (ныне Дарданеллы). У македонца была четкая цель: вместе со своими соратниками освободить греческие колонии от персов.

MediaInfo

Complete name : D:\Торренты\Фильмы\Документальные\Александр Македонский\01. Путь к власти.mkv
Format : Matroska
Format version : Version 4
File size : 816 MiB
Duration : 43 min 37 s
Overall bit rate : 2 616 kb/s
Encoded date : UTC 2020-02-06 16:58:12
Writing application : mkvmerge v6.6.0 ('The Edge Of The In Between') built on Dec 1 2013 17:55:00
Writing library : libebml v1.3.0 + libmatroska v1.4.1
Video
ID : 1
Format : AVC
Format/Info : Advanced Video Codec
Format profile : Main@L3
Format settings : CABAC / 4 Ref Frames
Format settings, CABAC : Yes
Format settings, Reference : 4 frames
Format settings, GOP : M=4, N=28
Codec ID : V_MPEG4/ISO/AVC
Bit rate : 2 372 kb/s
Width : 720 pixels
Height : 576 pixels
Display aspect ratio : 16:9
Frame rate mode : Variable
Original frame rate : 25.000 FPS
Standard : Component
Color space : YUV
Chroma subsampling : 4:2:0
Bit depth : 8 bits
Scan type : Interlaced
Scan type, store method : Separated fields
Scan order : Top Field First
Default : Yes
Forced : No
Color range : Limited
Color primaries : BT.601 PAL
Transfer characteristics : BT.470 System B/G
Matrix coefficients : BT.470 System B/G
Audio
ID : 2
Format : MPEG Audio
Format version : Version 1
Format profile : Layer 2
Codec ID : A_MPEG/L2
Codec ID/Hint : MP2
Duration : 43 min 37 s
Bit rate mode : Constant
Bit rate : 192 kb/s
Channel(s) : 2 channels
Sampling rate : 48.0 kHz
Compression mode : Lossy
Stream size : 59.9 MiB (7%)
Language : Russian
Default : Yes
Forced : No
Text
ID : 3
Format : UTF-8
Codec ID : S_TEXT/UTF8
Codec ID/Info : UTF-8 Plain Text
Title : СВ-Дубль
Language : Russian
Default : No
Forced : No
Complete name : D:\Торренты\Фильмы\Документальные\Александр Македонский\02. До конца света.mkv
Format : Matroska
Format version : Version 4
File size : 842 MiB
Duration : 43 min 33 s
Overall bit rate : 2 703 kb/s
Encoded date : UTC 2020-05-04 04:31:36
Writing application : mkvmerge v6.6.0 ('The Edge Of The In Between') built on Dec 1 2013 17:55:00
Writing library : libebml v1.3.0 + libmatroska v1.4.1
Video
ID : 1
Format : AVC
Format/Info : Advanced Video Codec
Format profile : Main@L3
Format settings : CABAC / 4 Ref Frames
Format settings, CABAC : Yes
Format settings, Reference : 4 frames
Format settings, GOP : M=4, N=28
Codec ID : V_MPEG4/ISO/AVC
Bit rate : 2 457 kb/s
Width : 720 pixels
Height : 576 pixels
Display aspect ratio : 16:9
Frame rate mode : Variable
Original frame rate : 25.000 FPS
Standard : Component
Color space : YUV
Chroma subsampling : 4:2:0
Bit depth : 8 bits
Scan type : Interlaced
Scan type, store method : Separated fields
Scan order : Top Field First
Default : Yes
Forced : No
Color range : Limited
Color primaries : BT.601 PAL
Transfer characteristics : BT.470 System B/G
Matrix coefficients : BT.470 System B/G
Audio
ID : 2
Format : MPEG Audio
Format version : Version 1
Format profile : Layer 2
Codec ID : A_MPEG/L2
Codec ID/Hint : MP2
Duration : 43 min 33 s
Bit rate mode : Constant
Bit rate : 192 kb/s
Channel(s) : 2 channels
Sampling rate : 48.0 kHz
Compression mode : Lossy
Stream size : 59.8 MiB (7%)
Language : Russian
Default : Yes
Forced : No
Text
ID : 3
Format : UTF-8
Codec ID : S_TEXT/UTF8
Codec ID/Info : UTF-8 Plain Text
Title : СВ-Дубль
Language : Russian
Default : No
Forced : No

Скриншоты 1047x576


[cybertorrent.ru].t21141.torrent 
Торрент: Зарегистрирован [ 2020-06-25 18:59 ] · 488325C18F70E7CF924B7DA711F25BF2D62EB4D1

Скачать .torrent

Скачать

17 KB

Статус: проверено
Скачан: 0 раз
Размер: 1,62 GB  ·  Тип торрента
terms.php
Профиль [ЛС]
Показать сообщения:    

Текущее время: 04-Дек 03:54

Часовой пояс: UTC ± 0



Вы не можете начинать темы
Вы не можете отвечать на сообщения
Вы не можете редактировать свои сообщения
Вы не можете удалять свои сообщения
Вы не можете голосовать в опросах
Вы не можете прикреплять файлы к сообщениям
Вы можете скачивать файлы