BitTorrent клиенты



(Rock) [CDR] The Beatles - Mexican Albums Collection, Dr. Ebbetts [2003], FLAC (image+.cue), lossless

Ответить на тему
Статистика раздачи
Размер:  894 MB   |    Зарегистрирован:  11 месяцев 18 дней   |    Скачан:  0 раз

Полного источника не было: Никогда

 
   
 
 
Автор Сообщение

вита ®

Пол: Не указан

Стаж: 11 месяцев 23 дня

Сообщений: 107

Создавать темы 04-Мар-2018 22:22

[Цитировать]

The Beatles - Mexican Albums Collection - Dr. Ebbetts
The Capitol Records Reissues
Жанр: Rock
Носитель: CDR
Страна-производитель диска (релиза): USA
Год издания: 2003
Издатель (лейбл): DESS (Dr. Ebbetts Sound Systems)
Страна исполнителя (группы): England
Аудиокодек: FLAC (*.flac)
Тип рипа: image+.cue
Битрейт аудио: lossless
Продолжительность: 02:20:18
Источник (релизер): Интернет
Наличие сканов в содержимом раздачи: да

Информация по коллекции

Установить фактические годы издания пластинок, использовавшихся д-ром Эббеттсом, проблематично: он эти данные не "огласил". Поэтому годы указаны в соответствии с тем, что удалось почерпнуть в интернете. А точнее...

O Dr. Ebbetts (англ.)

DREBBETTS.COM:
Dr. Ebbetts Sound Systems (DESS) is a pirate label specializing in needledrops of The Beatles US and UK releases.
At a time when many audiophiles were unsatisfied with the sound of the official CD catalog, Dr. Ebbetts provided
a high quality alternative and gained a loyal following. These remasters sourced from pristine, original vinyl
pressings and packaged in faithful reproductions of the original artwork became instant classics and must-haves
for aficionados. In 2009, with EMI on the verge of releasing the long awaited, official remasters of The Beatles
UK catalog, Dr. Ebbetts decided to put an end to his 14 year-old project. Proclaiming the remasters to be "good
enough to make the Ebbetts catalogue solidly inferior," DESS immediately became a defunct label. Today, genuine
DESS releases are highly sought after by fans and extremely prized among collectors.
DISCOGS.COM:
Dr. Ebbetts was a needledropper (a person who rips near mint/mint condition or unplayed
vinyl records) who was famous in the bootleg/audiophile communites for his Beatles releases,
which are regarded by some as being the best sounding versions of those albums. He retired
in 2008 due to the upcoming release of the 2009 Beatles remasters.
Dr. Ebbetts's Catalogue - http://drebbetts.com/catalog/
Dr. Ebbetts at Bootlegzone - http://www.bootlegzone.com/files.php?section=1&pub=160

Мексиканские альбомы д-ра Эббеттса

АЛЬБОМЫ:

Conozca A The Beatles! (Mexican Stereo-Mono) (1970) [SLEM 007]

01. I Saw Her Standing There - La Vi Alla [2:53]
02. I Want To Hold Your Hand - Quiero Estrechar Tu Mano [2:24]
03. She Loves You - Ella Te Ama [2:23]
04. I'll Get You - Seras Mia [2:09]
05. From Me To You - De Mi Para Ti [mono] [1:56]
06. Thank You Girl - Gracias Niña [2:03]
07. I Wanna Be Your Man - Quiero Ser Tu Hombre [2:00]
08. Not A Second Time - No Otra Vez [2:06]
09. Don't Bother Me - No Me Molestes [2:28]
10. Little Child - Pequeño Niño [1:47]
11. Hold Me Tight - Abrazame Fuerte [2:31]
12. This Boy - Este Muchacho [2:14]
Продолжительность: 00:26:53

Содержание индексной карты (.CUE)

REM GENRE Rock
REM DATE 1970
REM COMMENT DESS
PERFORMER "The Beatles"
TITLE "Conozca A The Beatles! (Mexican Stereo-Mono) [SLEM 007]"
FILE "The Beatles - Conozca A The Beatles! (Mexican Stereo-Mono) [SLEM 007].flac" WAVE
TRACK 01 AUDIO
TITLE "I Saw Her Standing There - La Vi Alla"
INDEX 01 00:00:00
TRACK 02 AUDIO
TITLE "I Want To Hold Your Hand - Quiero Estrechar Tu Mano"
INDEX 01 02:52:56
TRACK 03 AUDIO
TITLE "She Loves You - Ella Te Ama"
INDEX 01 05:17:17
TRACK 04 AUDIO
TITLE "I'll Get You - Seras Mia"
INDEX 01 07:40:03
TRACK 05 AUDIO
TITLE "From Me To You - De Mi Para Ti [mono]"
INDEX 01 09:48:64
TRACK 06 AUDIO
TITLE "Thank You Girl - Gracias Niсa"
INDEX 01 11:45:03
TRACK 07 AUDIO
TITLE "I Wanna Be Your Man - Quiero Ser Tu Hombre"
INDEX 01 13:48:26
TRACK 08 AUDIO
TITLE "Not A Second Time - No Otra Vez"
INDEX 01 15:48:19
TRACK 09 AUDIO
TITLE "Don't Bother Me - No Me Molestes"
INDEX 01 17:53:70
TRACK 10 AUDIO
TITLE "Little Child - Pequeсo Niсo"
INDEX 01 20:21:42
TRACK 11 AUDIO
TITLE "Hold Me Tight - Abrazame Fuerte"
INDEX 01 22:08:34
TRACK 12 AUDIO
TITLE "This Boy - Este Muchacho"
INDEX 01 24:39:28

Проверкa качества

accurip

CUE Corrector v. 8.3.3 / b. 848 (Feb. 26, 2018)
The Beatles / Conozca A The Beatles! (Mexican Stereo-Mono) [SLEM 007]
AccurateRip ID [000c4996-00713277-86064d0c] found.
Get file: http://www.accuraterip.com/accuraterip/6/9/9/dBAR-012-000c4996-00713277-86064d0c.bin
AccurateRip summary:
Track 1 not present in database
Track 2 not present in database
Track 3 not present in database
Track 4 not present in database
Track 5 not present in database
Track 6 not present in database
Track 7 not present in database
Track 8 not present in database
Track 9 not present in database
Track 10 not present in database
Track 11 not present in database
Track 12 not present in database
None of the tracks are present in the AccurateRip database
——————————————————————————————————————————————————
Offsetted by 6:
Track 1 cannot be verified as accurate (confidence 1) [38982BB1], AccurateRip returned [6E843D37] (AR v1)
Track 2 cannot be verified as accurate (confidence 1) [F11B7AB4], AccurateRip returned [E82948B1] (AR v1)
Track 3 cannot be verified as accurate (confidence 1) [1DDC64F3], AccurateRip returned [C54A1A52] (AR v1)
Track 4 cannot be verified as accurate (confidence 1) [67F51E47], AccurateRip returned [65733DE6] (AR v1)
Track 5 cannot be verified as accurate (confidence 1) [87998D54], AccurateRip returned [78B0B106] (AR v1)
Track 6 cannot be verified as accurate (confidence 1) [88142C72], AccurateRip returned [7690B42C] (AR v1)
Track 7 cannot be verified as accurate (confidence 1) [EA0769B2], AccurateRip returned [2AB3D5B6] (AR v1)
Track 8 cannot be verified as accurate (confidence 1) [A978B418], AccurateRip returned [DF796600] (AR v1)
Track 9 cannot be verified as accurate (confidence 1) [251AAC94], AccurateRip returned [3AC01666] (AR v1)
Track 10 cannot be verified as accurate (confidence 1) [6C879B46], AccurateRip returned [CC368DBB] (AR v1)
Track 11 cannot be verified as accurate (confidence 1) [88217037], AccurateRip returned [12204DC8] (AR v1)
Track 12 cannot be verified as accurate (confidence 1) [D2B7CA97], AccurateRip returned [0297E1BA] (AR v1)
No tracks could be verified as accurate
You may have a different pressing from the one(s) in the database
Track Peak [ CRC32 ] [W/O NULL] [ LOG ] [ ARv1 ] [ ARv2 ]
-- 98.9 [F0E79959] [F400EC44]
01 98.9 [1FF50B8A] [B9378147] [49B0D699] [7F9D0822]
02 71.8 [5E872157] [598325DD] [1D359CB3] [14A3E217]
03 79.0 [5C7E8D64] [0CEDE699] [1DC9C748] [C597DE90]
04 83.9 [26C82FB5] [77DB762B] [55E59325] [5464A215]
05 88.4 [82095D36] [4DA844F0] [0B51A842] [FD09D07A]
06 84.3 [D48D7AE0] [3F57E330] [B4FE8D35] [A41F9FAE]
07 85.1 [54AC5B24] [19F56BF1] [19DDAC25] [5ADA4A63]
08 83.1 [98E0CF2B] [F052259C] [D45B8E0D] [0AAE2D7C]
09 79.4 [E86F30A4] [1F070FDA] [B6923199] [CC9B17A1]
10 80.1 [C63DF051] [AAF454D4] [9FA92367] [FFA007BB]
11 75.2 [B4F12062] [C2CEBBCD] [CAA95337] [550D3E23]
12 72.2 [EEBBA5F4] [B8570059] [CDDC114E] [FE15DEA4]
Log created at February 26, 2018 21:02:54
Time elapsed: 4.456 s
=== 7CCE7BB3654008DA9C7161A1BF1D27F8DD2EDA7B3DC848255802315D9E500F91 ===

auCDtect

CUE Corrector v. 8.3.3 / b. 848 (Feb. 26, 2018)
————————————————————————————————————————————————————————————————————————
The Beatles / Conozca A The Beatles! (Mexican Stereo-Mono) [SLEM 007]
CUE file: The Beatles - Conozca A The Beatles! (Mexican Stereo-Mono) [SLEM 007].cue
Audio file: The Beatles - Conozca A The Beatles! (Mexican Stereo-Mono) [SLEM 007].flac [26:53.107; FLAC • 922 kbps • 16 bit \ 44100 Hz • stereo; 177.40 MB (186 012 150 B)]
Accuracy: -m0
Track 01 - I Saw Her Standing There - La Vi Alla - 100% CDDA [02:52:56]
Track 02 - I Want To Hold Your Hand - Quiero Estrechar Tu Mano - 100% CDDA [02:24:36]
Track 03 - She Loves You - Ella Te Ama - 100% CDDA [02:22:61]
Track 04 - I'll Get You - Seras Mia - 100% CDDA [02:08:61]
Track 05 - From Me To You - De Mi Para Ti [mono] - 100% CDDA [01:56:14]
Track 06 - Thank You Girl - Gracias Niña - 100% CDDA [02:03:23]
Track 07 - I Wanna Be Your Man - Quiero Ser Tu Hombre - 100% CDDA [01:59:68]
Track 08 - Not A Second Time - No Otra Vez - 100% CDDA [02:05:51]
Track 09 - Don't Bother Me - No Me Molestes - 100% CDDA [02:27:47]
Track 10 - Little Child - Pequeño Niño - 100% CDDA [01:46:67]
Track 11 - Hold Me Tight - Abrazame Fuerte - 100% CDDA [02:30:69]
Track 12 - This Boy - Este Muchacho - 100% CDDA [02:13:55]
————— Summary: —————
These tracks looks like CDDA with probability 100%.
————————————————————————————————————————————————————————————————————————
ANALYZER:
auCDtect: CD records authenticity detector, version 0.8.2
Copyright (c) 2004 Oleg Berngardt. All rights reserved.
Copyright (c) 2004 Alexander Djourik. All rights reserved.
Time elapsed: 1 m 16 s
Log created at February 26, 2018 23:26:52
=== 201F3AA276CB741F22B031A42DF8273B12FD4367DC88822A7A05A5DC9D01358A ===

Скриншот спектра частот

The Beatles Vol.2 (Mexican Stereo-Mono) (1979) [SLEM 044]

01. Al Compas De Beethoven - Roll Over Beethoven [2:47]
02. Por Favor, Por Favor - Please, Please Me [2:04]
03. Twist Y Gritos - Twist And Shout [2:39]
04. Nene Eres Tu - Baby It's You [2:37]
05. Preguntame Por Que - Ask Me Why [2:27]
06. Muchachos - Boys [2:27]
07. Todo Mi Amor - All My Loving [stereo] [2:08]
08. P.D. Te Queiro - P.S. I Love You [2:05]
09. Una Probada De Miel - A Taste Of Honey [stereo] [2:07]
10. Amame - Love Me Do [2:24]
11. Queires Saber Un Secreto - Do You Want To Know A Secret [stereo] [1:59]
12. No Sera Mucho - It Won't Be Long [stereo] [2:11]
Продолжительность: 00:27:54

Содержание индексной карты (.CUE)

REM GENRE Rock
REM DATE 1979
REM COMMENT DESS
PERFORMER "The Beatles"
TITLE "The Beatles Vol.2 (Mexican Stereo-Mono) [SLEM 044]"
FILE "The Beatles - The Beatles Vol.2 (Mexican Stereo-Mono) [SLEM 044].flac" WAVE
TRACK 01 AUDIO
TITLE "Al Compas De Beethoven - Roll Over Beethoven"
INDEX 01 00:00:00
TRACK 02 AUDIO
TITLE "Por Favor, Por Favor - Please, Please Me"
INDEX 01 02:46:50
TRACK 03 AUDIO
TITLE "Twist Y Gritos - Twist And Shout"
INDEX 01 04:51:01
TRACK 04 AUDIO
TITLE "Nene Eres Tu - Baby It's You"
INDEX 01 07:29:44
TRACK 05 AUDIO
TITLE "Preguntame Por Que - Ask Me Why"
INDEX 01 10:07:06
TRACK 06 AUDIO
TITLE "Muchachos - Boys"
INDEX 01 12:34:00
TRACK 07 AUDIO
TITLE "Todo Mi Amor - All My Loving [stereo]"
INDEX 01 15:00:39
TRACK 08 AUDIO
TITLE "P.D. Te Queiro - P.S. I Love You"
INDEX 01 17:08:51
TRACK 09 AUDIO
TITLE "Una Probada De Miel - A Taste Of Honey [stereo]"
INDEX 01 19:13:23
TRACK 10 AUDIO
TITLE "Amame - Love Me Do"
INDEX 01 21:19:70
TRACK 11 AUDIO
TITLE "Queires Saber Un Secreto - Do You Want To Know A Secret [stereo]"
INDEX 01 23:43:35
TRACK 12 AUDIO
TITLE "No Sera Mucho - It Won't Be Long [stereo]"
INDEX 01 25:42:25

Проверка качества

accurip

CUE Corrector v. 8.3.3 / b. 848 (Feb. 26, 2018)
AccurateRip ID [000ce5d5-00773f60-8b06890c] disk not present in database.
Log created at February 26, 2018 21:03:21

auCDtect

CUE Corrector v. 8.3.3 / b. 848 (Feb. 26, 2018)
————————————————————————————————————————————————————————————————————————
The Beatles / The Beatles Vol.2 (Mexican Stereo-Mono) [SLEM 044]
CUE file: The Beatles - The Beatles Vol.2 (Mexican Stereo-Mono) [SLEM 044].cue
Audio file: The Beatles - The Beatles Vol.2 (Mexican Stereo-Mono) [SLEM 044].flac [27:53.667; FLAC • 834 kbps • 16 bit \ 44100 Hz • stereo; 166.43 MB (174 514 881 B)]
Accuracy: -m0
Track 01 - Al Compas De Beethoven - Roll Over Beethoven - 100% CDDA [02:46:50]
Track 02 - Por Favor, Por Favor - Please, Please Me - 100% CDDA [02:04:26]
Track 03 - Twist Y Gritos - Twist And Shout - 100% CDDA [02:38:43]
Track 04 - Nene Eres Tu - Baby It's You - 100% CDDA [02:37:37]
Track 05 - Preguntame Por Que - Ask Me Why - 100% CDDA [02:26:69]
Track 06 - Muchachos - Boys - 100% CDDA [02:26:39]
Track 07 - Todo Mi Amor - All My Loving [stereo] - 100% CDDA [02:08:12]
Track 08 - P.D. Te Queiro - P.S. I Love You - 100% CDDA [02:04:47]
Track 09 - Una Probada De Miel - A Taste Of Honey [stereo] - 100% CDDA [02:06:47]
Track 10 - Amame - Love Me Do - 100% CDDA [02:23:40]
Track 11 - Queires Saber Un Secreto - Do You Want To Know A Secret [stereo] - 100% CDDA [01:58:65]
Track 12 - No Sera Mucho - It Won't Be Long [stereo] - 100% CDDA [02:11:25]
————— Summary: —————
These tracks looks like CDDA with probability 100%.
————————————————————————————————————————————————————————————————————————
ANALYZER:
auCDtect: CD records authenticity detector, version 0.8.2
Copyright (c) 2004 Oleg Berngardt. All rights reserved.
Copyright (c) 2004 Alexander Djourik. All rights reserved.
Time elapsed: 1 m 18 s
Log created at February 26, 2018 21:40:12
=== 4CA88297AC1BA603D28C57655F8FB18F58B27DFA92627486B767628F360BF0AE ===

Скриншот спектра частот

The Beatles Vol.3 (Mexican Stereo-Mono) (1980) [SLEM 045]

01. El Diablo En Su Corazón (Devil In Her Heart) [2:28]
02. Dinero - Es Lo Que Quiero (Money - That's What I Want) [mono] [2:48]
03. Anna - Ve A El (Anna - Go To Him) [2:54]
04. Cadenas (Chains) [2:24]
05. Miseria (Misery) [1:48]
06. No Puedes Hacer Eso (You Can't Do That) [2:35]
07. Hay Un Lugar (There's A Place) [1:50]
08. Todo Lo Que Tengo Que Hacer (All I've Got To Do) [2:00]
09. Hasta Que Llegaste (Till There Was You) [2:12]
10. Por Favor Señor Postman (Please Mr. Postman) [2:32]
11. Me Has Atrapado (You've Really Got A Hold On Me) [2:58]
12. No Puedo Comprar Mi Amor (Can't Buy Me Love) [2:10]
Продолжительность: 00:28:38

Содержание индексной карты (.CUE)

REM GENRE Rock
REM DATE 1980
REM COMMENT DESS
PERFORMER "The Beatles"
TITLE "The Beatles Vol.3 (Mexican Stereo-Mono) [SLEM 045]"
FILE "The Beatles - The Beatles Vol.3 (Mexican Stereo-Mono) [SLEM 045].flac" WAVE
TRACK 01 AUDIO
TITLE "El Diablo En Su Corazуn (Devil In Her Heart)"
INDEX 01 00:00:00
TRACK 02 AUDIO
TITLE "Dinero - Es Lo Que Quiero (Money - That's What I Want) [mono]"
INDEX 01 02:27:43
TRACK 03 AUDIO
TITLE "Anna - Ve A El (Anna - Go To Him)"
INDEX 01 05:15:24
TRACK 04 AUDIO
TITLE "Cadenas (Chains)"
INDEX 01 08:09:08
TRACK 05 AUDIO
TITLE "Miseria (Misery)"
INDEX 01 10:32:73
TRACK 06 AUDIO
TITLE "No Puedes Hacer Eso (You Can't Do That)"
INDEX 01 12:20:54
TRACK 07 AUDIO
TITLE "Hay Un Lugar (There's A Place)"
INDEX 01 14:56:16
TRACK 08 AUDIO
TITLE "Todo Lo Que Tengo Que Hacer (All I've Got To Do)"
INDEX 01 16:45:54
TRACK 09 AUDIO
TITLE "Hasta Que Llegaste (Till There Was You)"
INDEX 01 18:46:12
TRACK 10 AUDIO
TITLE "Por Favor Seсor Postman (Please Mr. Postman)"
INDEX 01 20:58:18
TRACK 11 AUDIO
TITLE "Me Has Atrapado (You've Really Got A Hold On Me)"
INDEX 01 23:29:58
TRACK 12 AUDIO
TITLE "No Puedo Comprar Mi Amor (Can't Buy Me Love)"
INDEX 01 26:27:74

Проверка качества

accurip

CUE Corrector v. 8.3.3 / b. 848 (Feb. 26, 2018)
The Beatles / The Beatles Vol.3 (Mexican Stereo-Mono) [SLEM 045]
AccurateRip ID [000cf6cf-0077df77-9706b60c] found.
Get file: http://www.accuraterip.com/accuraterip/f/c/6/dBAR-012-000cf6cf-0077df77-9706b60c.bin
AccurateRip summary:
Track 1 not present in database
Track 2 not present in database
Track 3 not present in database
Track 4 not present in database
Track 5 not present in database
Track 6 not present in database
Track 7 not present in database
Track 8 not present in database
Track 9 not present in database
Track 10 not present in database
Track 11 not present in database
Track 12 not present in database
None of the tracks are present in the AccurateRip database
——————————————————————————————————————————————————
Offsetted by 6:
Track 1 cannot be verified as accurate (confidence 1) [69EA7D84], AccurateRip returned [4FD296B9] (AR v1)
Track 2 cannot be verified as accurate (confidence 1) [187EDE89], AccurateRip returned [6F45D947] (AR v1)
Track 3 cannot be verified as accurate (confidence 1) [86B3F9ED], AccurateRip returned [B52EA796] (AR v1)
Track 4 cannot be verified as accurate (confidence 1) [223FEA02], AccurateRip returned [5F6A7632] (AR v1)
Track 5 cannot be verified as accurate (confidence 1) [78CA47EE], AccurateRip returned [89DD3E00] (AR v1)
Track 6 cannot be verified as accurate (confidence 1) [492AB325], AccurateRip returned [AAB38EA0] (AR v1)
Track 7 cannot be verified as accurate (confidence 1) [DDDBE905], AccurateRip returned [CB4193C5] (AR v1)
Track 8 cannot be verified as accurate (confidence 1) [DD20081C], AccurateRip returned [00133635] (AR v1)
Track 9 cannot be verified as accurate (confidence 1) [0C758006], AccurateRip returned [99E781AC] (AR v1)
Track 10 cannot be verified as accurate (confidence 1) [AA291C4D], AccurateRip returned [118B40AF] (AR v1)
Track 11 cannot be verified as accurate (confidence 1) [5191F9A3], AccurateRip returned [77833535] (AR v1)
Track 12 cannot be verified as accurate (confidence 1) [A8C151EE], AccurateRip returned [18C044EF] (AR v1)
No tracks could be verified as accurate
You may have a different pressing from the one(s) in the database
Track Peak [ CRC32 ] [W/O NULL] [ LOG ] [ ARv1 ] [ ARv2 ]
-- 100.0 [E5F15BB9] [C2C6918E]
01 94.1 [52C79C2A] [40E8D5BC] [4AD01D8C] [311867B8]
02 89.0 [408FA46D] [DC69AEFC] [68F9BA88] [C0305A05]
03 98.9 [F68866D2] [29457AC6] [FAC47CE4] [2A9D1F85]
04 100.0 [761D2428] [67307EA6] [087BA668] [46051E09]
05 95.6 [9506F3A6] [091FA6E3] [93FE1B51] [A557E638]
06 97.2 [7B1BD872] [64114072] [79B067D6] [DB37991A]
07 78.4 [7E0BEC68] [974461A7] [018DBDE0] [EF3A529C]
08 98.6 [1D921F6A] [95887C11] [075D99A5] [2A9FB41A]
09 87.6 [A2CDAE3C] [57A22F26] [0E8A5C35] [9D013C93]
10 87.7 [B269A93F] [F1F5C9A7] [99BD87F5] [01EA9A94]
11 98.0 [CD2E5A84] [9AC756BF] [A0008C51] [C6663323]
12 94.0 [DC07B45B] [5B75B72E] [52605B64] [C26606BE]
Log created at February 26, 2018 21:32:27
Time elapsed: 4.761 s
=== EE30FB91BDE0FA8F1935D0D306FC2C339872A0A7081E6E0D11F8102DCC5B709B ===

auCDtect

CUE Corrector v. 8.3.3 / b. 848 (Feb. 26, 2018)
————————————————————————————————————————————————————————————————————————
The Beatles / The Beatles Vol.3 (Mexican Stereo-Mono) [SLEM 045]
CUE file: The Beatles - The Beatles Vol.3 (Mexican Stereo-Mono) [SLEM 045].cue
Audio file: The Beatles - The Beatles Vol.3 (Mexican Stereo-Mono) [SLEM 045].flac [28:38.413; FLAC • 858 kbps • 16 bit \ 44100 Hz • stereo; 175.94 MB (184 485 232 B)]
Accuracy: -m0
Track 01 - El Diablo En Su Corazón (Devil In Her Heart) - 100% CDDA [02:27:43]
Track 02 - Dinero - Es Lo Que Quiero (Money - That's What I Want) [mono] - 100% CDDA [02:47:56]
Track 03 - Anna - Ve A El (Anna - Go To Him) - 100% CDDA [02:53:59]
Track 04 - Cadenas (Chains) - 100% CDDA [02:23:65]
Track 05 - Miseria (Misery) - 100% CDDA [01:47:56]
Track 06 - No Puedes Hacer Eso (You Can't Do That) - 99% CDDA [02:35:37]
Track 07 - Hay Un Lugar (There's A Place) - 100% CDDA [01:49:38]
Track 08 - Todo Lo Que Tengo Que Hacer (All I've Got To Do) - 100% CDDA [02:00:33]
Track 09 - Hasta Que Llegaste (Till There Was You) - 100% CDDA [02:12:06]
Track 10 - Por Favor Señor Postman (Please Mr. Postman) - 100% CDDA [02:31:40]
Track 11 - Me Has Atrapado (You've Really Got A Hold On Me) - 100% CDDA [02:58:16]
Track 12 - No Puedo Comprar Mi Amor (Can't Buy Me Love) - 100% CDDA [02:10:32]
————— Summary: —————
These tracks looks like CDDA with probability 100%.
————————————————————————————————————————————————————————————————————————
ANALYZER:
auCDtect: CD records authenticity detector, version 0.8.2
Copyright (c) 2004 Oleg Berngardt. All rights reserved.
Copyright (c) 2004 Alexander Djourik. All rights reserved.
Time elapsed: 1 m 18 s
Log created at February 26, 2018 21:38:23
=== 8BF2790C312B3A502C2270A0C1ADB9C279D2DC194F7D71039A6BE92465EA69E1 ===

Скриншот спектра частот

The Beatles Vol.4 (Mexican Stereo) (1970) [SLEM 008]

01. A Hard Day's Night (Una Dura Noche) [2:35]
02. I Should Have Known Better (Debía Conocerla Mejor) [2:45]
03. If I Fell (Sí Cai) [2:20]
04. I'm Happy Just To Dance With You (Soy Feliz Al Bailar Contigo) [1:57]
05. And I Love Her (Y La Amo) [2:30]
06. Tell Me Why (Dime Por Qué) [2:10]
07. Long Tall Sally (La Flaca Sally) [2:03]
08. Any Time At All (En Cualquier Momento) [2:12]
09. I'll Cry Instead (En Cambio Llorare) [1:47]
10. Things We Said Today (Las Cosas Que Dijimos) [2:36]
11. When I Get Home (Cuando Llegue A Casa) [2:17]
12. I'll Be Back (Regresare) [2:23]
Продолжительность: 00:27:35

Содержание индексной карты (.CUE)

REM GENRE Rock
REM DATE 1970
REM COMMENT DESS
PERFORMER "The Beatles"
TITLE "The Beatles Vol.4 (Mexican Stereo) [SLEM 008]"
FILE "The Beatles - The Beatles Vol.4 (Mexican Stereo) [SLEM 008].flac" WAVE
TRACK 01 AUDIO
TITLE "A Hard Day's Night (Una Dura Noche)"
INDEX 01 00:00:00
TRACK 02 AUDIO
TITLE "I Should Have Known Better (Debнa Conocerla Mejor)"
INDEX 01 02:34:51
TRACK 03 AUDIO
TITLE "If I Fell (Sн Cai)"
INDEX 01 05:19:48
TRACK 04 AUDIO
TITLE "I'm Happy Just To Dance With You (Soy Feliz Al Bailar Contigo)"
INDEX 01 07:39:52
TRACK 05 AUDIO
TITLE "And I Love Her (Y La Amo)"
INDEX 01 09:36:34
TRACK 06 AUDIO
TITLE "Tell Me Why (Dime Por Quй)"
INDEX 01 12:06:48
TRACK 07 AUDIO
TITLE "Long Tall Sally (La Flaca Sally)"
INDEX 01 14:16:71
TRACK 08 AUDIO
TITLE "Any Time At All (En Cualquier Momento)"
INDEX 01 16:20:19
TRACK 09 AUDIO
TITLE "I'll Cry Instead (En Cambio Llorare)"
INDEX 01 18:32:25
TRACK 10 AUDIO
TITLE "Things We Said Today (Las Cosas Que Dijimos)"
INDEX 01 20:19:25
TRACK 11 AUDIO
TITLE "When I Get Home (Cuando Llegue A Casa)"
INDEX 01 22:55:27
TRACK 12 AUDIO
TITLE "I'll Be Back (Regresare)"
INDEX 01 25:12:27

Проверка качества

accurip

CUE Corrector v. 8.3.3 / b. 848 (Feb. 26, 2018)
The Beatles / The Beatles Vol.4 (Mexican Stereo) [SLEM 008]
AccurateRip ID [000c879b-0073cc36-9606760c] found.
Get file: http://www.accuraterip.com/accuraterip/b/9/7/dBAR-012-000c879b-0073cc36-9606760c.bin
AccurateRip summary:
Track 1 not present in database
Track 2 not present in database
Track 3 not present in database
Track 4 not present in database
Track 5 not present in database
Track 6 not present in database
Track 7 not present in database
Track 8 not present in database
Track 9 not present in database
Track 10 not present in database
Track 11 not present in database
Track 12 not present in database
None of the tracks are present in the AccurateRip database
——————————————————————————————————————————————————
Offsetted by 6:
Track 1 cannot be verified as accurate (confidence 1) [A49BE589], AccurateRip returned [8E8B77A4] (AR v1)
Track 2 cannot be verified as accurate (confidence 1) [D6C5905D], AccurateRip returned [12C66780] (AR v1)
Track 3 cannot be verified as accurate (confidence 1) [C5FC700A], AccurateRip returned [2469879B] (AR v1)
Track 4 cannot be verified as accurate (confidence 1) [D97BD550], AccurateRip returned [5B1EFED4] (AR v1)
Track 5 cannot be verified as accurate (confidence 1) [2AE80C85], AccurateRip returned [3E0BFC90] (AR v1)
Track 6 cannot be verified as accurate (confidence 1) [D7A6788C], AccurateRip returned [00D55B34] (AR v1)
Track 7 cannot be verified as accurate (confidence 1) [FBED6743], AccurateRip returned [4A2E798A] (AR v1)
Track 8 cannot be verified as accurate (confidence 1) [8FDEA758], AccurateRip returned [8AC600B9] (AR v1)
Track 9 cannot be verified as accurate (confidence 1) [A4E673A4], AccurateRip returned [314682B6] (AR v1)
Track 10 cannot be verified as accurate (confidence 1) [559702DB], AccurateRip returned [EC406C9E] (AR v1)
Track 11 cannot be verified as accurate (confidence 1) [FC063210], AccurateRip returned [723F722A] (AR v1)
Track 12 cannot be verified as accurate (confidence 1) [417D8545], AccurateRip returned [47885D3F] (AR v1)
No tracks could be verified as accurate
You may have a different pressing from the one(s) in the database
Track Peak [ CRC32 ] [W/O NULL] [ LOG ] [ ARv1 ] [ ARv2 ]
-- 96.0 [31E50825] [80850D0F]
01 94.2 [07D2E931] [C6B77473] [A6DFE705] [920740D3]
02 87.4 [625983C5] [07B89532] [2EB948F3] [6BFD0540]
03 77.7 [315331C8] [5E88FBF0] [4CEACAAA] [AC6AB0EA]
04 77.3 [7C8390D4] [9CFE64B8] [6B5E8D4C] [ED99D87B]
05 60.7 [671138C8] [329AA2BE] [A421269D] [B86FEE12]
06 72.4 [A347F6F2] [D5DB6F03] [3C808E9C] [66AB9726]
07 89.7 [84766F08] [BB6B4817] [2FD51A61] [7F0B3EAE]
08 96.0 [FFC08A75] [AD23FEBA] [FE6C9FB0] [FA5C526B]
09 86.4 [A11A3106] [6F5AC5AA] [C615F97A] [534CD5E9]
10 88.3 [696AC5EA] [E6B0EA3A] [5FC0BF27] [F7A57CC9]
11 88.0 [E7A75020] [EB7FE90E] [A546CD4C] [1C943219]
12 86.3 [91C8B9D3] [48EF5150] [9CB4B485] [A3DB9E1D]
Log created at February 26, 2018 21:32:45
Time elapsed: 4.670 s
=== FBA9804DA74E1A82A36A72AADC6F75B0694F3DE68515653B478B43433843D7BE ===

auCDtect

CUE Corrector v. 8.3.3 / b. 848 (Feb. 26, 2018)
————————————————————————————————————————————————————————————————————————
The Beatles / The Beatles Vol.4 (Mexican Stereo) [SLEM 008]
CUE file: The Beatles - The Beatles Vol.4 (Mexican Stereo) [SLEM 008].cue
Audio file: The Beatles - The Beatles Vol.4 (Mexican Stereo) [SLEM 008].flac [27:34.933; FLAC • 843 kbps • 16 bit \ 44100 Hz • stereo; 166.37 MB (174 456 600 B)]
Accuracy: -m0
Track 01 - A Hard Day's Night (Una Dura Noche) - 100% CDDA [02:34:51]
Track 02 - I Should Have Known Better (Debía Conocerla Mejor) - 99% CDDA [02:44:72]
Track 03 - If I Fell (Sí Cai) - 99% CDDA [02:20:04]
Track 04 - I'm Happy Just To Dance With You (Soy Feliz Al Bailar Contigo) - 100% CDDA [01:56:57]
Track 05 - And I Love Her (Y La Amo) - 99% CDDA [02:30:14]
Track 06 - Tell Me Why (Dime Por Qué) - 100% CDDA [02:10:23]
Track 07 - Long Tall Sally (La Flaca Sally) - 99% CDDA [02:03:23]
Track 08 - Any Time At All (En Cualquier Momento) - 100% CDDA [02:12:06]
Track 09 - I'll Cry Instead (En Cambio Llorare) - 100% CDDA [01:47:00]
Track 10 - Things We Said Today (Las Cosas Que Dijimos) - 100% CDDA [02:36:02]
Track 11 - When I Get Home (Cuando Llegue A Casa) - 99% CDDA [02:17:00]
Track 12 - I'll Be Back (Regresare) - 100% CDDA [02:22:43]
————— Summary: —————
These tracks looks like CDDA with probability 100%.
————————————————————————————————————————————————————————————————————————
ANALYZER:
auCDtect: CD records authenticity detector, version 0.8.2
Copyright (c) 2004 Oleg Berngardt. All rights reserved.
Copyright (c) 2004 Alexander Djourik. All rights reserved.
Time elapsed: 1 m 14 s
Log created at February 26, 2018 21:36:39
=== FFB8D76E36C25C26302E266D6416B72965C68744BA66C75E467E7CF5807C36F9 ===

Скриншот спектра частот

Help! (Version Original De La Pelicula) (Mexican Stereo) (1975) [SLEM 004]

01. Help! [2:38]
02. The Night Before [2:35]
03. From Me To You Fantasy [2:07]
04. You've Got To Hide Your Love Away [2:10]
05. I Need You [2:30]
06. In The Tyrol - Introducing Wagner's Overture To Act III Of 'Lohengrin' [2:23]
07. Another Girl [2:07]
08. Another Hard Day's Night [2:32]
09. Ticket To Ride [3:06]
10. The Bitter End - You Can't Do That [2:25]
11. You're Going To Lose That Girl [2:19]
12. The Chase [2:27]
Продолжительность: 00:29:18

Содержание индексной карты (.CUE)

REM GENRE Rock
REM DATE 1975
REM COMMENT DESS
PERFORMER "The Beatles"
TITLE "Help! (Version Original De La Pelicula) (Mexican Stereo) [SLEM 004]"
FILE "The Beatles - Help! (Version Original De La Pelicula) (Mexican Stereo) [SLEM 004].flac" WAVE
TRACK 01 AUDIO
TITLE "Help!"
INDEX 01 00:00:00
TRACK 02 AUDIO
TITLE "The Night Before"
INDEX 01 02:37:57
TRACK 03 AUDIO
TITLE "From Me To You Fantasy"
INDEX 01 05:12:41
TRACK 04 AUDIO
TITLE "You've Got To Hide Your Love Away"
INDEX 01 07:19:34
TRACK 05 AUDIO
TITLE "I Need You"
INDEX 01 09:29:38
TRACK 06 AUDIO
TITLE "In The Tyrol - Introducing Wagner's Overture To Act III Of 'Lohengrin'"
INDEX 01 11:59:52
TRACK 07 AUDIO
TITLE "Another Girl"
INDEX 01 14:23:11
TRACK 08 AUDIO
TITLE "Another Hard Day's Night"
INDEX 01 16:29:51
TRACK 09 AUDIO
TITLE "Ticket To Ride"
INDEX 01 19:01:17
TRACK 10 AUDIO
TITLE "The Bitter End - You Can't Do That"
INDEX 01 22:07:45
TRACK 11 AUDIO
TITLE "You're Going To Lose That Girl"
INDEX 01 24:32:09
TRACK 12 AUDIO
TITLE "The Chase"
INDEX 01 26:51:40

Проверка качества

accurip

CUE Corrector v. 8.3.3 / b. 848 (Feb. 26, 2018)
AccurateRip ID [000d00d9-007963a3-9206de0c] disk not present in database.
Log created at February 26, 2018 21:32:59

auCDtect

CUE Corrector v. 8.3.3 / b. 848 (Feb. 26, 2018)
————————————————————————————————————————————————————————————————————————
The Beatles / Help! (Version Original De La Pelicula) (Mexican Stereo) [SLEM 004]
CUE file: The Beatles - Help! (Version Original De La Pelicula) (Mexican Stereo) [SLEM 004].cue
Audio file: The Beatles - Help! (Version Original De La Pelicula) (Mexican Stereo) [SLEM 004].flac [29:18.200; FLAC • 838 kbps • 16 bit \ 44100 Hz • stereo; 175.83 MB (184 375 229 B)]
Accuracy: -m0
Track 01 - Help! - 100% CDDA [02:37:57]
Track 02 - The Night Before - 100% CDDA [02:34:59]
Track 03 - From Me To You Fantasy - 100% CDDA [02:06:68]
Track 04 - You've Got To Hide Your Love Away - 100% CDDA [02:10:04]
Track 05 - I Need You - 100% CDDA [02:30:14]
Track 06 - In The Tyrol - Introducing Wagner's Overture To Act III Of 'Lohengrin' - 100% CDDA [02:23:34]
Track 07 - Another Girl - 100% CDDA [02:06:40]
Track 08 - Another Hard Day's Night - 100% CDDA [02:31:41]
Track 09 - Ticket To Ride - 100% CDDA [03:06:28]
Track 10 - The Bitter End - You Can't Do That - 100% CDDA [02:24:39]
Track 11 - You're Going To Lose That Girl - 100% CDDA [02:19:31]
Track 12 - The Chase - 100% CDDA [02:26:50]
————— Summary: —————
These tracks looks like CDDA with probability 100%.
————————————————————————————————————————————————————————————————————————
ANALYZER:
auCDtect: CD records authenticity detector, version 0.8.2
Copyright (c) 2004 Oleg Berngardt. All rights reserved.
Copyright (c) 2004 Alexander Djourik. All rights reserved.
Time elapsed: 1 m 19 s
Log created at February 26, 2018 21:34:55
=== 02FC4DF0C6C8B33E65C3C7CBA85273ED5D3A8618531752BEEE5C739D6205F6B1 ===

Скриншот спектра частот

[cybertorrent.ru].t28972.torrent 
Торрент: Зарегистрирован [ 2018-03-04 22:25 ] · 9188833DB8C2EBD67EBAC18BFE391AFA4BBB65B5

Скачать .torrent

Скачать

15 KB

Статус: проверено
Скачан: 0 раз
Размер: 894 MB
terms.php
[Профиль] [ЛС]
Показать сообщения:    
Ответить на тему

Текущее время: 23-Фев 16:24

Часовой пояс: UTC + 3



Вы не можете начинать темы
Вы не можете отвечать на сообщения
Вы не можете редактировать свои сообщения
Вы не можете удалять свои сообщения
Вы не можете голосовать в опросах
Вы не можете прикреплять файлы к сообщениям
Вы можете скачивать файлы