BitTorrent клиенты



(Post-Bop, Modal Music, Fusion) [CD] Yoshimi Ueno - Sea Sound - 1980 (2010 Japan Edition), FLAC (tracks+.cue), lossless

Ответить на тему
Статистика раздачи
Размер:  299 MB   |    Зарегистрирован:  11 месяцев 12 дней   |    Скачан:  0 раз

Полного источника не было: Никогда

 
   
 
 
Автор Сообщение

99.99 ®

Пол: Не указан

Стаж: 11 месяцев 17 дней

Сообщений: 496

Создавать темы 04-Мар-2018 22:21

[Цитировать]

Yoshimi Ueno - Sea Sound
Жанр: Post-Bop, Modal Music, Fusion
Носитель: CD
Страна-производитель диска (релиза): Япония
Год издания: 2010
Издатель (лейбл): Solid Records/Ultra-Vybe, Inc.
Номер по каталогу: CDSOL-1345
Аудиокодек: FLAC (*.flac)
Тип рипа: tracks+.cue
Битрейт аудио: lossless
Продолжительность: 42:19
Источник (релизер): mvns
Наличие сканов в содержимом раздачи: нет
Треклист:
01. Sea Sound (Ueno) - 10:14
02. Tsuchi Ningyo (Nakayama) - 6:18
03. My Spirit (Takahashi) - 5:34
04. Skip (Ueno) - 7:51
05. K. Blues (Takahashi) - 6:13
06. Uzushio (Nakayama) - 6:09
Состав:
Yoshimi Ueno - drums
Yasuaki Shimizu - tenor saxophone
Keisaku Takahashi - piano
Sadao Nishiwaki - electric guitar
Eiji Aizawa, Eiji Nakayama - bass
Masato Okubo - guitar, electric guitar
Recorded at Tokyo Media Studio on May 8-9, 1980.

Лог создания рипа

X Lossless Decoder version 20170729 (150.3)
XLD extraction logfile from 2018-02-16 10:56:29 -0800
Yoshimi Ueno & His Best Friends (上野好美 & ヒズ・ベストフレンズ) / Sea Sound (太古の海鳴り)
Used drive : TSSTcorp CDDVDW SE-218CB (revision MF00)
Media type : Pressed CD
Ripper mode : XLD Secure Ripper
Disable audio cache : OK for the drive with a cache less than 1375KiB
Make use of C2 pointers : NO
Read offset correction : 6
Max retry count : 100
Gap status : Analyzed, Appended (except HTOA)
TOC of the extracted CD
Track | Start | Length | Start sector | End sector
---------------------------------------------------------
1 | 00:00:00 | 10:13:40 | 0 | 46014
2 | 10:13:40 | 06:18:09 | 46015 | 74373
3 | 16:31:49 | 05:33:73 | 74374 | 99421
4 | 22:05:47 | 07:50:54 | 99422 | 134725
5 | 29:56:26 | 06:12:63 | 134726 | 162688
6 | 36:09:14 | 06:09:30 | 162689 | 190393
AccurateRip Summary (DiscID: 000acc24-00386303-5409ea06)
Track 01 : OK (v1+v2, confidence 2/2)
Track 02 : OK (v1+v2, confidence 2/2)
Track 03 : OK (v1+v2, confidence 2/2)
Track 04 : OK (v1+v2, confidence 2/2)
Track 05 : OK (v1+v2, confidence 2/2)
Track 06 : OK (v1+v2, confidence 2/2)
->All tracks accurately ripped.
All Tracks
Album gain : -10.64 dB
Peak : 0.988617
Statistics
Read error : 0
Jitter error (maybe fixed) : 0
Retry sector count : 0
Damaged sector count : 0
Track 01
Filename : /Volumes/Multimedia/XLD/Yoshimi Ueno & His Best Friends (上野好美 & ヒズ・ベストフレンズ) - (1980) Sea Sound (太古の海鳴り) [FLAC]/01 - Yoshimi Ueno & His Best Friends (上野好美 & ヒズ・ベストフレンズ) - Sea Sound (海鳴り).flac
Pre-gap length : 00:02:00
Track gain : -11.48 dB
Peak : 0.988586
CRC32 hash (test run) : DFD5968B
CRC32 hash : DFD5968B
CRC32 hash (skip zero) : F431FFA5
AccurateRip v1 signature : F9653513
AccurateRip v2 signature : 6D7C2FE0
->Accurately ripped (v1+v2, confidence 1+1/2)
Statistics
Read error : 0
Jitter error (maybe fixed) : 0
Retry sector count : 0
Damaged sector count : 0
Track 02
Filename : /Volumes/Multimedia/XLD/Yoshimi Ueno & His Best Friends (上野好美 & ヒズ・ベストフレンズ) - (1980) Sea Sound (太古の海鳴り) [FLAC]/02 - Yoshimi Ueno & His Best Friends (上野好美 & ヒズ・ベストフレンズ) - Tsuchi Ningyo (土人形).flac
Track gain : -9.65 dB
Peak : 0.988586
CRC32 hash (test run) : 992ED784
CRC32 hash : 992ED784
CRC32 hash (skip zero) : B50BA217
AccurateRip v1 signature : BF75D259
AccurateRip v2 signature : 1607BA1B
->Accurately ripped (v1+v2, confidence 1+1/2)
Statistics
Read error : 0
Jitter error (maybe fixed) : 0
Retry sector count : 0
Damaged sector count : 0
Track 03
Filename : /Volumes/Multimedia/XLD/Yoshimi Ueno & His Best Friends (上野好美 & ヒズ・ベストフレンズ) - (1980) Sea Sound (太古の海鳴り) [FLAC]/03 - Yoshimi Ueno & His Best Friends (上野好美 & ヒズ・ベストフレンズ) - My Spirit.flac
Track gain : -6.98 dB
Peak : 0.988617
CRC32 hash (test run) : D5FAA31F
CRC32 hash : D5FAA31F
CRC32 hash (skip zero) : 6CC12889
AccurateRip v1 signature : BE4B0191
AccurateRip v2 signature : C4A3FCCC
->Accurately ripped (v1+v2, confidence 1+1/2)
Statistics
Read error : 0
Jitter error (maybe fixed) : 0
Retry sector count : 0
Damaged sector count : 0
Track 04
Filename : /Volumes/Multimedia/XLD/Yoshimi Ueno & His Best Friends (上野好美 & ヒズ・ベストフレンズ) - (1980) Sea Sound (太古の海鳴り) [FLAC]/04 - Yoshimi Ueno & His Best Friends (上野好美 & ヒズ・ベストフレンズ) - Skip.flac
Track gain : -10.99 dB
Peak : 0.988617
CRC32 hash (test run) : 8ADB2FEA
CRC32 hash : 8ADB2FEA
CRC32 hash (skip zero) : 51499B74
AccurateRip v1 signature : DFEDE3A1
AccurateRip v2 signature : 6DEF8FFF
->Accurately ripped (v1+v2, confidence 1+1/2)
Statistics
Read error : 0
Jitter error (maybe fixed) : 0
Retry sector count : 0
Damaged sector count : 0
Track 05
Filename : /Volumes/Multimedia/XLD/Yoshimi Ueno & His Best Friends (上野好美 & ヒズ・ベストフレンズ) - (1980) Sea Sound (太古の海鳴り) [FLAC]/05 - Yoshimi Ueno & His Best Friends (上野好美 & ヒズ・ベストフレンズ) - K. Blues.flac
Track gain : -10.68 dB
Peak : 0.988586
CRC32 hash (test run) : 66F1C8FE
CRC32 hash : 66F1C8FE
CRC32 hash (skip zero) : 4C2CEACF
AccurateRip v1 signature : 00BAFB6A
AccurateRip v2 signature : 34F64D35
->Accurately ripped (v1+v2, confidence 1+1/2)
Statistics
Read error : 0
Jitter error (maybe fixed) : 0
Retry sector count : 0
Damaged sector count : 0
Track 06
Filename : /Volumes/Multimedia/XLD/Yoshimi Ueno & His Best Friends (上野好美 & ヒズ・ベストフレンズ) - (1980) Sea Sound (太古の海鳴り) [FLAC]/06 - Yoshimi Ueno & His Best Friends (上野好美 & ヒズ・ベストフレンズ) - Uzushio (うずしお).flac
Track gain : -5.46 dB
Peak : 0.988586
CRC32 hash (test run) : FA9E25D4
CRC32 hash : FA9E25D4
CRC32 hash (skip zero) : 1C9D5582
AccurateRip v1 signature : 65460CBA
AccurateRip v2 signature : 939B958E
->Accurately ripped (v1+v2, confidence 1+1/2)
Statistics
Read error : 0
Jitter error (maybe fixed) : 0
Retry sector count : 0
Damaged sector count : 0
No errors occurred
End of status report
-----BEGIN XLD SIGNATURE-----
wKZU_MRAKLYuvxmccBvwlaVugkCgNaoYLgST_FoNhoRoEuY7lW49MV0vBB2Kvucwzs9TUfM5GYzsoi6oDWzauk2MKpeI1p__TsnWcWe
-----END XLD SIGNATURE-----

Содержание индексной карты (.CUE)

TITLE "Sea Sound"
PERFORMER "Yoshimi Ueno"
REM GENRE "Jazz"
REM DATE "1980"
REM DISCID 5409EA06
REM REPLAYGAIN_ALBUM_GAIN -10.64 dB
REM REPLAYGAIN_ALBUM_PEAK 0.988617
FILE "01 - Sea Sound.flac" WAVE
TRACK 01 AUDIO
TITLE "Sea Sound"
PERFORMER "Yoshimi Ueno"
ISRC JPS800950757
REM REPLAYGAIN_TRACK_GAIN -11.48 dB
REM REPLAYGAIN_TRACK_PEAK 0.988586
INDEX 01 00:00:00
FILE "02 - Tsuchi Ningyo.flac" WAVE
TRACK 02 AUDIO
TITLE "Tsuchi Ningyo"
PERFORMER "Yoshimi Ueno"
ISRC JPS800950758
REM REPLAYGAIN_TRACK_GAIN -9.65 dB
REM REPLAYGAIN_TRACK_PEAK 0.988586
INDEX 01 00:00:00
FILE "03 - My Spirit.flac" WAVE
TRACK 03 AUDIO
TITLE "My Spirit"
PERFORMER "Yoshimi Ueno"
ISRC JPS800950759
REM REPLAYGAIN_TRACK_GAIN -6.98 dB
REM REPLAYGAIN_TRACK_PEAK 0.988617
INDEX 01 00:00:00
FILE "04 - Skip.flac" WAVE
TRACK 04 AUDIO
TITLE "Skip"
PERFORMER "Yoshimi Ueno"
ISRC JPS800950760
REM REPLAYGAIN_TRACK_GAIN -10.99 dB
REM REPLAYGAIN_TRACK_PEAK 0.988617
INDEX 01 00:00:00
FILE "05 - K. Blues.flac" WAVE
TRACK 05 AUDIO
TITLE "K. Blues"
PERFORMER "Yoshimi Ueno"
ISRC JPS800950761
REM REPLAYGAIN_TRACK_GAIN -10.68 dB
REM REPLAYGAIN_TRACK_PEAK 0.988586
INDEX 01 00:00:00
FILE "06 - Uzushio.flac" WAVE
TRACK 06 AUDIO
TITLE "Uzushio"
PERFORMER "Yoshimi Ueno"
ISRC JPS800950762
REM REPLAYGAIN_TRACK_GAIN -5.46 dB
REM REPLAYGAIN_TRACK_PEAK 0.988586
INDEX 01 00:00:00

Отчет CUETools

[CUETools log; Date: 28.02.2018 2:21:14; Version: 2.1.5]
[CTDB TOCID: M4ayatureek0cJB45.2WEnCBdGI-] found.
Track | CTDB Status
1 | (1/1) Accurately ripped
2 | (1/1) Accurately ripped
3 | (1/1) Accurately ripped
4 | (1/1) Accurately ripped
5 | (1/1) Accurately ripped
6 | (1/1) Accurately ripped
[AccurateRip ID: 000acc24-00386303-5409ea06] found.
Track [ CRC | V2 ] Status
01 [f9653513|6d7c2fe0] (1+1/2) Accurately ripped
02 [bf75d259|1607ba1b] (1+1/2) Accurately ripped
03 [be4b0191|c4a3fccc] (1+1/2) Accurately ripped
04 [dfede3a1|6def8fff] (1+1/2) Accurately ripped
05 [00bafb6a|34f64d35] (1+1/2) Accurately ripped
06 [65460cba|939b958e] (1+1/2) Accurately ripped
Track Peak [ CRC32 ] [W/O NULL]
-- 98,8 [F4BCBFEF] [8A315BE0]
01 98,8 [DFD5968B] [F431FFA5]
02 98,8 [992ED784] [B50BA217]
03 98,8 [D5FAA31F] [6CC12889]
04 98,8 [8ADB2FEA] [51499B74]
05 98,8 [66F1C8FE] [4C2CEACF]
06 98,8 [FA9E25D4] [1C9D5582]
[cybertorrent.ru].t29014.torrent 
Торрент: Зарегистрирован [ 2018-03-04 22:25 ] · 9DFE156461EC9AC301F71A555C47DEF0BEEFED

Скачать .torrent

Скачать

13 KB

Статус: проверено
Скачан: 0 раз
Размер: 299 MB
terms.php
[Профиль] [ЛС]
Показать сообщения:    
Ответить на тему

Текущее время: 17-Фев 08:18

Часовой пояс: UTC + 3



Вы не можете начинать темы
Вы не можете отвечать на сообщения
Вы не можете редактировать свои сообщения
Вы не можете удалять свои сообщения
Вы не можете голосовать в опросах
Вы не можете прикреплять файлы к сообщениям
Вы можете скачивать файлы