BitTorrent клиенты



(Heavy Metal) [CD] Rabid Bitch of the North - Nothing But a Bitter Taste - 2017, FLAC (image+.cue), lossless

Ответить на тему
Статистика раздачи
Размер:  258 MB   |    Зарегистрирован:  11 месяцев 12 дней   |    Скачан:  0 раз

Полного источника не было: Никогда

 
   
 
 
Автор Сообщение

BLADE ®

Пол: Не указан

Стаж: 11 месяцев 17 дней

Сообщений: 330

Создавать темы 04-Мар-2018 22:20

[Цитировать]

Rabid Bitch of the North / Nothing But a Bitter Taste
Жанр: Heavy Metal
Носитель: CD
Страна-производитель диска (релиза): E.U.
Год издания: 2017
Издатель (лейбл): Hostile Media
Страна исполнителя (группы): U.K.
Аудиокодек: FLAC (*.flac)
Тип рипа: image+.cue
Битрейт аудио: lossless
Продолжительность: 00:36:05
Источник (релизер): Собственный рип
Наличие сканов в содержимом раздачи: да
Треклист:
1. The Missionary
2. Chance
3. Nothing But a Bitter Taste
4. Gilded Men
5. God of Punishment
6. Demon Mind
7. Defending Two Castles
8. Trapped in 1999

Лог создания рипа

Exact Audio Copy V1.0 beta 6 from 9. April 2015
EAC extraction logfile from 20. February 2018, 22:37
Rabid Bitch of the North / Nothing but a Bitter Taste
Used drive : Optiarc DVD RW AD-7700S Adapter: 1 ID: 1
Read mode : Secure
Utilize accurate stream : Yes
Defeat audio cache : Yes
Make use of C2 pointers : No
Read offset correction : 48
Overread into Lead-In and Lead-Out : No
Fill up missing offset samples with silence : Yes
Delete leading and trailing silent blocks : No
Null samples used in CRC calculations : Yes
Used interface : Native Win32 interface for Win NT & 2000
Used output format : User Defined Encoder
Selected bitrate : 1024 kBit/s
Quality : High
Add ID3 tag : No
Command line compressor : C:\Program Files (x86)\Exact Audio Copy\FLAC\FLAC.EXE
Additional command line options : -V -8 -T "Date=%year%" -T "Genre=%genre%" %source%
TOC of the extracted CD
Track | Start | Length | Start sector | End sector
---------------------------------------------------------
1 | 0:00.00 | 4:28.67 | 0 | 20166
2 | 4:28.67 | 4:24.50 | 20167 | 40016
3 | 8:53.42 | 3:35.22 | 40017 | 56163
4 | 12:28.64 | 4:39.50 | 56164 | 77138
5 | 17:08.39 | 5:18.63 | 77139 | 101051
6 | 22:27.27 | 4:37.67 | 101052 | 121893
7 | 27:05.19 | 4:08.50 | 121894 | 140543
8 | 31:13.69 | 4:50.60 | 140544 | 162353
Range status and errors
Selected range
Filename C:\Users\Олег\Desktop\Rabid Bitch of the North - Nothing but a Bitter Taste.wav
Peak level 97.2 %
Extraction speed 4.1 X
Range quality 100.0 %
Test CRC 2950224F
Copy CRC 2950224F
Copy OK
No errors occurred
AccurateRip summary
Track 1 not present in database
Track 2 not present in database
Track 3 not present in database
Track 4 not present in database
Track 5 not present in database
Track 6 not present in database
Track 7 not present in database
Track 8 not present in database
None of the tracks are present in the AccurateRip database
End of status report
---- CUETools DB Plugin V2.1.6
[CTDB TOCID: aiumYOL6lwj9N5zzKYJmlhi9lrc-] found
Submit result: aiumYOL6lwj9N5zzKYJmlhi9lrc- has been confirmed
Track | CTDB Status
1 | (1/1) Accurately ripped
2 | (1/1) Accurately ripped
3 | (1/1) Accurately ripped
4 | (1/1) Accurately ripped
5 | (1/1) Accurately ripped
6 | (1/1) Accurately ripped
7 | (1/1) Accurately ripped
8 | (1/1) Accurately ripped
==== Log checksum DBBC5006C8CEA70EED16D5880A1FBB6EB61813073287A9999A596ABD4BC8DB54 ====

Состав

Gerry Mulholland - Vocals, Guitar
Joe McDonnell - Vocals, Bass
Chris Condie - Drums
[cybertorrent.ru].t29068.torrent 
Торрент: Зарегистрирован [ 2018-03-04 22:25 ] · 9309479EF9BBBD48A4285A635D0806F567C267EC

Скачать .torrent

Скачать

11 KB

Статус: проверено
Скачан: 0 раз
Размер: 258 MB
terms.php
[Профиль] [ЛС]
Показать сообщения:    
Ответить на тему

Текущее время: 17-Фев 09:12

Часовой пояс: UTC + 3



Вы не можете начинать темы
Вы не можете отвечать на сообщения
Вы не можете редактировать свои сообщения
Вы не можете удалять свои сообщения
Вы не можете голосовать в опросах
Вы не можете прикреплять файлы к сообщениям
Вы можете скачивать файлы