BitTorrent клиенты



Dave Dee, Dozy, Beaky, Mick & Tich - Greatest Hits [2003, Rock/pop, DVDRip]

Ответить на тему
Статистика раздачи
Размер:  774 MB   |    Зарегистрирован:  11 месяцев 12 дней   |    Скачан:  0 раз

Полного источника не было: Никогда

 
   
 
 
Автор Сообщение

Олег ®

Пол: Не указан

Стаж: 1 год

Сообщений: 326

Создавать темы 04-Мар-2018 22:20

[Цитировать]

Dave Dee, Dozy, Beaky, Mick & Tich - Greatest Hits Жанр: Rock/pop
Продолжительность: 01:00:03.
Год выпуска: 2003
Описание: Пять друзей из Уилтшира , Дэвид Джон Харман (Дейв Ди), Тревор Леонард Уорд-Дэвис (Дози), Джон Даймонд (Beaky), Майкл Уилсон (Мик) и Ян Фредерик Стивен Ами (Тич), сформировали группу в 1961 году.
Dave Dee, Dozy, Beaky, Mick & Tich ( DDDBM & T ) была английской поп-группой , которая в шестидесятые годы 20-го века выпустила несколько хитов, в 1968 году группа попала на первые места в Великобритании ...

БОНУС двд раздается тут - http://rutracker.org/forum/viewtopic.php?t=5527363
( материалом поделился chiffon )
Треклист:
1. Hold tight
2. You make it move
3. Hideaway
4. Hard to love you
5. Bend it
6. Save me
7. Frustration
8. Loos of England
9. Touch me touch me
10. Zabadak
11. The legend of Xanadu
12. Last night in Soho
13. The wreck of the Antoinette
14. Don Juan
15. Snake in the grass
16. Tonight today
17. My woman's man
18. Wedding bells
19. You've got me on the run
20. Stayig with it

Доп. информация: по видео

скрытый текст

Полное имя 01.Dave Dee, Dozy, Beaky, Mick & Tich - Greatest Hits.avi
Формат : AVI
Формат/Информация : Audio Video Interleave
Размер файла : 774 Мбайт
Продолжительность : 1 ч. 0 м.
Общий поток : 1803 Кбит/сек
Программа кодирования : Lavf51.12.1
Видео
Идентификатор : 0
Формат : xvid
Идентификатор кодека : xvid
Продолжительность : 1 ч. 0 м.
Битрейт : 1600 Кбит/сек
Ширина : 640 пикселей
Высота : 480 пикселей
Соотношение сторон : 4:3
Частота кадров : 25,000 кадров/сек
Бит/(Пиксели*Кадры) : 0.208
Размер потока : 687 Мбайт (89%)
Аудио
Идентификатор : 1
Формат : AC-3
Формат/Информация : Audio Coding 3
Расширение режима : CM (complete main)
Параметр Endianness формата : Big
Идентификатор кодека : 2000
Продолжительность : 1 ч. 0 м.
Вид битрейта : Постоянный
Битрейт : 192 Кбит/сек
Каналы : 2 канала
Расположение каналов : Front: L R
Частота : 48,0 КГц
Битовая глубина : 16 бит
Метод сжатия : С потерями
Размер потока : 82,5 Мбайт (11%)
Выравнивание : Соединение по промежуткам
Продолжительность промежутка : 32 мс. (0,80 видеокадр)
Источник: собственный рип
Cсылка http://rutracker.org/forum/viewtopic.php?t=3284433
Качество: DVDRip
Контейнер: AVI
Видео кодек: XviD
Аудио кодек: AC3
Видео: 640x480 (1.33:1), 25 fps, XviD build 63 ~1599 kbps avg, 0.21 bit/pixel
Аудио: 48 kHz, AC3 Dolby Digital, 2/0 (L,R) ch, ~192.00 kbps avg

Скриншоты

Мои другие раздачи 1 - http://rutracker.org/forum/tracker.php?rid=14861751
Мои другие раздачи 2- http://rutracker.org/forum/tracker.php?rid=26740408Приятного просмотра!
[cybertorrent.ru].t29078.torrent 
Торрент: Зарегистрирован [ 2018-03-04 22:25 ] · 42C22861886378D37E557116A5244C2CE787B5C0

Скачать .torrent

Скачать

16 KB

Статус: проверено
Скачан: 0 раз
Размер: 774 MB
terms.php
[Профиль] [ЛС]
Показать сообщения:    
Ответить на тему

Текущее время: 17-Фев 09:00

Часовой пояс: UTC + 3



Вы не можете начинать темы
Вы не можете отвечать на сообщения
Вы не можете редактировать свои сообщения
Вы не можете удалять свои сообщения
Вы не можете голосовать в опросах
Вы не можете прикреплять файлы к сообщениям
Вы можете скачивать файлы