BitTorrent клиенты



(Concerto) Alban Berg - Kammerkonzert | Nikos Skalkottas - Klavierkonzert n.2 | Arnold Schoenberg - Klavierkonzert (Paul Jacobs · Wolfgang Marschner · Georg Hadjinikos · Eduard Steuermann · Hermann Scherchen) - 1993, FLAC (image+.cue) lossless

Ответить на тему
Статистика раздачи
Размер:  291 MB   |    Зарегистрирован:  11 месяцев 12 дней   |    Скачан:  0 раз

Полного источника не было: Никогда

 
   
 
 
Автор Сообщение

Red ®

Пол: Не указан

Стаж: 1 год

Сообщений: 205

Создавать темы 05-Мар-2018 01:06

[Цитировать]

Berg - Kammerkonzert
Skalkottas - Klavierkonzert n.2
Schönberg - Klavierkonzert
--- Жанр: Concerto
Страна-производитель диска: France
Год издания диска: 1993
Издатель (лейбл): Arkadia
Дата записи: 1953-59
Аудиокодек: FLAC
Тип рипа: image+.cue
Битрейт аудио: lossless
Продолжительность: 73'01''
Источник: собственный рип
Наличие сканов в содержимом раздачи: да
Треклист:
  • [1-3] Alban Berg
    Kammerkonzert für Klavier, Violine und dreizehn Blaserinstrumente
    Pianoforte: Paul Jacobs
    Violino: Wolfgang Marschner
    Köln Radio Sinfonie Orchester - Hermann Scherchen

  • [4-6] Nicos Skalkottas
    Klavierkonzert n.2
    Pianoforte: Georg Hadjinikos
    NDR-Sinfonieorchester - Hermann Scherchen

  • [7] Arnold Schönberg
    Klavierkonzert, op.42
    Pianoforte: Eduard Steuermann
    Sinfonie Orchester des Hessischer Rundfunks - Hermann Scherchen
    -

    Лог создания рипа

    Exact Audio Copy V1.3 from 2. September 2016
    EAC extraction logfile from 1. March 2018, 21:32
    Hermann Scherchen / Berg · Skalkottas · Schoenberg - Konzerte
    Used drive : TEAC CD-W540E Adapter: 1 ID: 2
    Read mode : Secure
    Utilize accurate stream : Yes
    Defeat audio cache : Yes
    Make use of C2 pointers : No
    Read offset correction : 686
    Overread into Lead-In and Lead-Out : No
    Fill up missing offset samples with silence : Yes
    Delete leading and trailing silent blocks : No
    Null samples used in CRC calculations : Yes
    Used interface : Native Win32 interface for Win NT & 2000
    Used output format : User Defined Encoder
    Selected bitrate : 32 kBit/s
    Quality : High
    Add ID3 tag : No
    Command line compressor : C:\Program Files (x86)\Exact Audio Copy\Flac\flac.exe
    Additional command line options : -T "COMMENT=CD-rip by el coronel" -8 -V %source%
    TOC of the extracted CD
    Track | Start | Length | Start sector | End sector
    ---------------------------------------------------------
    1 | 0:00.33 | 7:23.65 | 33 | 33322
    2 | 7:24.23 | 15:04.35 | 33323 | 101157
    3 | 22:28.58 | 9:54.05 | 101158 | 145712
    4 | 32:22.63 | 9:10.55 | 145713 | 187017
    5 | 41:33.43 | 6:38.05 | 187018 | 216872
    6 | 48:11.48 | 6:12.05 | 216873 | 244777
    7 | 54:23.53 | 18:37.57 | 244778 | 328609
    Range status and errors
    Selected range
    Filename Q:\Music\Berg · Skalkottas · Schoenberg - Konzerte (Scherchen)\CD.wav
    Peak level 95.5 %
    Extraction speed 8.2 X
    Range quality 100.0 %
    Test CRC 8C811615
    Copy CRC 8C811615
    Copy OK
    No errors occurred
    AccurateRip summary
    Track 1 not present in database
    Track 2 not present in database
    Track 3 not present in database
    Track 4 not present in database
    Track 5 not present in database
    Track 6 not present in database
    Track 7 not present in database
    None of the tracks are present in the AccurateRip database
    End of status report
    ---- CUETools DB Plugin V2.1.6
    [CTDB TOCID: VLVZ5wiCQu6hmTfwcZnhnCnNqK0-] found
    Submit result: VLVZ5wiCQu6hmTfwcZnhnCnNqK0- has been uploaded
    Track | CTDB Status
    1 | (1/1) Differs in 19 samples @04:25:71
    2 | (1/1) Accurately ripped
    3 | (1/1) Accurately ripped
    4 | (1/1) Accurately ripped
    5 | (1/1) Accurately ripped
    6 | (1/1) Accurately ripped
    7 | (1/1) Accurately ripped
    If you are sure that your rip contains errors, you can use CUETools to repair it.
    ==== Log checksum 322D50CE80F199F161BF357B5331201523AC9BC074FE93D053174792B45EF38E ====

    Содержание индексной карты (.CUE)

    REM GENRE Classical
    REM DATE 1993
    REM DISCID 65111D07
    REM COMMENT ExactAudioCopy v1.3
    CATALOG 0000000000000
    PERFORMER "Hermann Scherchen"
    TITLE "Berg · Skalkottas · Schoenberg - Konzerte"
    FILE "CD.Flac" WAVE
    TRACK 01 AUDIO
    TITLE "A.Berg - Kammerkonzert: I. Tema scherzoso con variazioni"
    PERFORMER "P.Jacobs, W.Marschner, Koln RSO - H.Scherchen"
    INDEX 00 00:00:00
    INDEX 01 00:00:33
    TRACK 02 AUDIO
    TITLE "II. Adagio"
    PERFORMER "P.Jacobs, W.Marschner, Koln RSO - H.Scherchen"
    INDEX 01 07:24:23
    TRACK 03 AUDIO
    TITLE "III. Rondo ritmico con introduzione"
    PERFORMER "P.Jacobs, W.Marschner, Koln RSO - H.Scherchen"
    INDEX 01 22:28:58
    TRACK 04 AUDIO
    TITLE "N.Skalkottas - Klavierkonzert n.2: I. Allegro molto vivace"
    PERFORMER "G.Hadjinikos, NDR-Sinfonieorchester - H.Scherchen"
    INDEX 00 32:13:13
    INDEX 01 32:22:63
    TRACK 05 AUDIO
    TITLE "II. Andantino"
    PERFORMER "G.Hadjinikos, NDR-Sinfonieorchester - H.Scherchen"
    INDEX 00 41:32:15
    INDEX 01 41:33:43
    TRACK 06 AUDIO
    TITLE "III. Allegro moderato"
    PERFORMER "G.Hadjinikos, NDR-Sinfonieorchester - H.Scherchen"
    INDEX 00 48:10:48
    INDEX 01 48:11:48
    TRACK 07 AUDIO
    TITLE "A.Schoenberg - Klavierkonzert, op.42"
    PERFORMER "E.Steuermann, Frankfurt RSO - H.Scherchen"
    INDEX 00 54:21:55
    INDEX 01 54:23:53
    -Доп. информация: грандиозный состав исполнителей.
    [cybertorrent.ru].t29340.torrent 
    Торрент: Зарегистрирован [ 2018-03-05 01:10 ] · 2EAF023972D009829921B55EE5C37739FFD33A3E

    Скачать .torrent

    Скачать

    12 KB

    Статус: проверено
    Скачан: 0 раз
    Размер: 291 MB
    terms.php
  • [Профиль] [ЛС]
    Показать сообщения:    
    Ответить на тему

    Текущее время: 17-Фев 09:34

    Часовой пояс: UTC + 3



    Вы не можете начинать темы
    Вы не можете отвечать на сообщения
    Вы не можете редактировать свои сообщения
    Вы не можете удалять свои сообщения
    Вы не можете голосовать в опросах
    Вы не можете прикреплять файлы к сообщениям
    Вы можете скачивать файлы