BitTorrent клиенты



(Fusion) [CD] Larry Coryell & Steve Khan - Two for the Road - 1978 (2015 Japan Edition), FLAC (tracks+.cue), lossless

Ответить на тему
Статистика раздачи
Размер:  333 MB   |    Зарегистрирован:  11 месяцев 18 дней   |    Скачан:  0 раз

Полного источника не было: Никогда

 
   
 
 
Автор Сообщение

nox ®

Пол: Не указан

Стаж: 11 месяцев 23 дня

Сообщений: 53

Создавать темы 05-Мар-2018 03:54

[Цитировать]

Larry Coryell & Steve Khan - Two for the Road
Жанр: Fusion
Носитель: CD
Страна-производитель диска (релиза): Япония
Год издания: 2015
Издатель (лейбл): Sony Music Labels Inc.
Номер по каталогу: SICJ-101
Страна исполнителя (группы): США
Аудиокодек: FLAC (*.flac)
Тип рипа: tracks+.cue
Битрейт аудио: lossless
Продолжительность: 58:04
Источник (релизер): perception1111
Наличие сканов в содержимом раздачи: да
Треклист:
01. Spain (Corea) - 5:29
02. Bouquet (Hutcherson) - 5:48
03. Son of Stiff Neck (Khan-Coryell) - 5:41
04. Ju Ju (Shorter) - 3:18
05. St. Gallen (Coryell) - 7:29
06. Footprints (Shorter) - 5:53
07. General Mojo's Well Laid Plan (Swallow) - 4:21
08. Toronto Under the Sign of Capricorn (Coryell) - 8:10
09. For Philip and Django (Coryell) - 4:33
10. Rodrigo Reflections (Coryell) - 7:22
Состав:
Larry Coryell, Steve Khan (#1-7) - acoustic guitar
Recorded in 1975-1978.

Лог создания рипа

X Lossless Decoder version 20160920 (149.2)
XLD extraction logfile from 2018-03-01 07:43:49 +0800
Larry Coryell & Steve Khan / Two For The Road
Used drive : Apple SuperDrive (revision 2.00)
Media type : Pressed CD
Ripper mode : XLD Secure Ripper
Disable audio cache : OK for the drive with a cache less than 1375KiB
Make use of C2 pointers : NO
Read offset correction : 6
Max retry count : 20
Gap status : Analyzed, Appended
TOC of the extracted CD
Track | Start | Length | Start sector | End sector
---------------------------------------------------------
1 | 00:00:00 | 05:28:43 | 0 | 24642
2 | 05:28:43 | 05:48:24 | 24643 | 50766
3 | 11:16:67 | 05:41:29 | 50767 | 76370
4 | 16:58:21 | 03:18:05 | 76371 | 91225
5 | 20:16:26 | 07:29:00 | 91226 | 124900
6 | 27:45:26 | 05:53:31 | 124901 | 151406
7 | 33:38:57 | 04:20:51 | 151407 | 170957
8 | 37:59:33 | 08:09:65 | 170958 | 207697
9 | 46:09:23 | 04:33:17 | 207698 | 228189
10 | 50:42:40 | 07:21:73 | 228190 | 261337
AccurateRip Summary (DiscID: 00152beb-00aa6145-6d0d9c0a)
Track 01 : OK (v2, confidence 4/4)
Track 02 : OK (v2, confidence 4/4)
Track 03 : OK (v2, confidence 4/4)
Track 04 : OK (v2, confidence 4/4)
Track 05 : OK (v2, confidence 4/4)
Track 06 : OK (v2, confidence 4/4)
Track 07 : OK (v2, confidence 4/4)
Track 08 : OK (v2, confidence 4/4)
Track 09 : OK (v2, confidence 4/4)
Track 10 : OK (v2, confidence 4/4)
->All tracks accurately ripped.
All Tracks
Album gain : -3.74 dB
Peak : 1.000000
Statistics
Read error : 0
Jitter error (maybe fixed) : 0
Retry sector count : 0
Damaged sector count : 0
Track 01
Filename : /Users/arvind/Desktop/Larry Coryell & Steve Khan - Two For The Road (1977) [FLAC]/01 - Larry Coryell & Steve Khan - Spain.flac
Pre-gap length : 00:02:00
Track gain : -4.71 dB
Peak : 0.992889
CRC32 hash (test run) : CB9EEF00
CRC32 hash : CB9EEF00
CRC32 hash (skip zero) : BE4258B7
AccurateRip v1 signature : 8DC6DA89
AccurateRip v2 signature : 5C689184
->Accurately ripped (v2, confidence 4/4)
Statistics
Read error : 0
Jitter error (maybe fixed) : 0
Retry sector count : 0
Damaged sector count : 0
Track 02
Filename : /Users/arvind/Desktop/Larry Coryell & Steve Khan - Two For The Road (1977) [FLAC]/02 - Larry Coryell & Steve Khan - Bouquet.flac
Pre-gap length : 00:01:59
Track gain : 0.47 dB
Peak : 0.981812
CRC32 hash (test run) : E798A3E5
CRC32 hash : E798A3E5
CRC32 hash (skip zero) : 0CF7D9CE
AccurateRip v1 signature : C48DD10B
AccurateRip v2 signature : 0B962C66
->Accurately ripped (v2, confidence 4/4)
Statistics
Read error : 0
Jitter error (maybe fixed) : 0
Retry sector count : 0
Damaged sector count : 0
Track 03
Filename : /Users/arvind/Desktop/Larry Coryell & Steve Khan - Two For The Road (1977) [FLAC]/03 - Larry Coryell & Steve Khan - Son Of Stiff Neck.flac
Pre-gap length : 00:01:61
Track gain : -5.50 dB
Peak : 0.981476
CRC32 hash (test run) : 77C2AC56
CRC32 hash : 77C2AC56
CRC32 hash (skip zero) : EF2D87AC
AccurateRip v1 signature : D45CC559
AccurateRip v2 signature : 52B74C11
->Accurately ripped (v2, confidence 4/4)
Statistics
Read error : 0
Jitter error (maybe fixed) : 0
Retry sector count : 0
Damaged sector count : 0
Track 04
Filename : /Users/arvind/Desktop/Larry Coryell & Steve Khan - Two For The Road (1977) [FLAC]/04 - Larry Coryell & Steve Khan - Ju Ju.flac
Pre-gap length : 00:01:71
Track gain : -7.12 dB
Peak : 0.986267
CRC32 hash (test run) : 5B12D977
CRC32 hash : 5B12D977
CRC32 hash (skip zero) : FCDD011E
AccurateRip v1 signature : C41417FF
AccurateRip v2 signature : E35A62E6
->Accurately ripped (v2, confidence 4/4)
Statistics
Read error : 0
Jitter error (maybe fixed) : 0
Retry sector count : 0
Damaged sector count : 0
Track 05
Filename : /Users/arvind/Desktop/Larry Coryell & Steve Khan - Two For The Road (1977) [FLAC]/05 - Larry Coryell & Steve Khan - St. Gallen.flac
Pre-gap length : 00:01:72
Track gain : -1.04 dB
Peak : 0.996002
CRC32 hash (test run) : F13D1C27
CRC32 hash : F13D1C27
CRC32 hash (skip zero) : 4F00899E
AccurateRip v1 signature : A59143EF
AccurateRip v2 signature : D11FE797
->Accurately ripped (v2, confidence 4/4)
Statistics
Read error : 0
Jitter error (maybe fixed) : 0
Retry sector count : 0
Damaged sector count : 0
Track 06
Filename : /Users/arvind/Desktop/Larry Coryell & Steve Khan - Two For The Road (1977) [FLAC]/06 - Larry Coryell & Steve Khan - Footprints.flac
Pre-gap length : 00:01:52
Track gain : -1.68 dB
Peak : 0.999512
CRC32 hash (test run) : EA68003C
CRC32 hash : EA68003C
CRC32 hash (skip zero) : 70553C10
AccurateRip v1 signature : 09799D2E
AccurateRip v2 signature : 67A5C1C9
->Accurately ripped (v2, confidence 4/4)
Statistics
Read error : 0
Jitter error (maybe fixed) : 0
Retry sector count : 0
Damaged sector count : 0
Track 07
Filename : /Users/arvind/Desktop/Larry Coryell & Steve Khan - Two For The Road (1977) [FLAC]/07 - Larry Coryell & Steve Khan - General Mojo's Well Laid Plan.flac
Pre-gap length : 00:01:44
Track gain : -2.86 dB
Peak : 1.000000
CRC32 hash (test run) : C19A42F4
CRC32 hash : C19A42F4
CRC32 hash (skip zero) : 2E70F41A
AccurateRip v1 signature : 90B53F61
AccurateRip v2 signature : 06A2FE51
->Accurately ripped (v2, confidence 4/4)
Statistics
Read error : 0
Jitter error (maybe fixed) : 0
Retry sector count : 0
Damaged sector count : 0
Track 08
Filename : /Users/arvind/Desktop/Larry Coryell & Steve Khan - Two For The Road (1977) [FLAC]/08 - Larry Coryell & Steve Khan - Toronto Under The Sign Of Capricorn.flac
Pre-gap length : 00:03:61
Track gain : -4.09 dB
Peak : 0.994843
CRC32 hash (test run) : 9AE02F40
CRC32 hash : 9AE02F40
CRC32 hash (skip zero) : 5C180D80
AccurateRip v1 signature : F9D15B72
AccurateRip v2 signature : 9881EB00
->Accurately ripped (v2, confidence 4/4)
Statistics
Read error : 0
Jitter error (maybe fixed) : 0
Retry sector count : 0
Damaged sector count : 0
Track 09
Filename : /Users/arvind/Desktop/Larry Coryell & Steve Khan - Two For The Road (1977) [FLAC]/09 - Larry Coryell & Steve Khan - For Philip And Django.flac
Pre-gap length : 00:01:02
Track gain : -1.79 dB
Peak : 0.966309
CRC32 hash (test run) : 30AAC839
CRC32 hash : 30AAC839
CRC32 hash (skip zero) : DA19BD3A
AccurateRip v1 signature : D886B323
AccurateRip v2 signature : 17F8B334
->Accurately ripped (v2, confidence 4/4)
Statistics
Read error : 0
Jitter error (maybe fixed) : 0
Retry sector count : 0
Damaged sector count : 0
Track 10
Filename : /Users/arvind/Desktop/Larry Coryell & Steve Khan - Two For The Road (1977) [FLAC]/10 - Larry Coryell & Steve Khan - Rodrigo Refrections.flac
Pre-gap length : 00:01:31
Track gain : -3.87 dB
Peak : 0.997467
CRC32 hash (test run) : 9A6E6696
CRC32 hash : 9A6E6696
CRC32 hash (skip zero) : DC67EE9D
AccurateRip v1 signature : 1198DDEF
AccurateRip v2 signature : 2D0E621F
->Accurately ripped (v2, confidence 4/4)
Statistics
Read error : 0
Jitter error (maybe fixed) : 0
Retry sector count : 0
Damaged sector count : 0
No errors occurred
End of status report
-----BEGIN XLD SIGNATURE-----
pDhc232y.G8dR.PCFt9zqVrkh3_bw.3YMnJepzdTGURykA6p.ODPEakkD7lRHOcatPHXCxw4TlB2k2PA1Knc9ybhlCqwKsBmMkMukKO
-----END XLD SIGNATURE-----

Содержание индексной карты (.CUE)

TITLE "Two for the Road"
PERFORMER "Larry Coryell & Steve Khan"
REM GENRE "Jazz"
REM DATE "1978"
REM DISCID 6D0D9C0A
REM REPLAYGAIN_ALBUM_GAIN -3.74 dB
REM REPLAYGAIN_ALBUM_PEAK 1.000000
FILE "01 - Spain.flac" WAVE
TRACK 01 AUDIO
TITLE "Spain"
ISRC USAR11500021
REM REPLAYGAIN_TRACK_GAIN -4.71 dB
REM REPLAYGAIN_TRACK_PEAK 0.992889
INDEX 01 00:00:00
TRACK 02 AUDIO
TITLE "Bouquet"
ISRC USAR11500022
REM REPLAYGAIN_TRACK_GAIN 0.47 dB
REM REPLAYGAIN_TRACK_PEAK 0.981812
INDEX 00 05:26:59
FILE "02 - Bouquet.flac" WAVE
INDEX 01 00:00:00
TRACK 03 AUDIO
TITLE "Son of Stiff Neck"
ISRC USAR11500023
REM REPLAYGAIN_TRACK_GAIN -5.50 dB
REM REPLAYGAIN_TRACK_PEAK 0.981476
INDEX 00 05:46:38
FILE "03 - Son of Stiff Neck.flac" WAVE
INDEX 01 00:00:00
TRACK 04 AUDIO
TITLE "Ju Ju"
ISRC USAR11500024
REM REPLAYGAIN_TRACK_GAIN -7.12 dB
REM REPLAYGAIN_TRACK_PEAK 0.986267
INDEX 00 05:39:33
FILE "04 - Ju Ju.flac" WAVE
INDEX 01 00:00:00
TRACK 05 AUDIO
TITLE "St. Gallen"
ISRC USAR11500025
REM REPLAYGAIN_TRACK_GAIN -1.04 dB
REM REPLAYGAIN_TRACK_PEAK 0.996002
INDEX 00 03:16:08
FILE "05 - St. Gallen.flac" WAVE
INDEX 01 00:00:00
TRACK 06 AUDIO
TITLE "Footprints"
ISRC USAR11500026
REM REPLAYGAIN_TRACK_GAIN -1.68 dB
REM REPLAYGAIN_TRACK_PEAK 0.999512
INDEX 00 07:27:23
FILE "06 - Footprints.flac" WAVE
INDEX 01 00:00:00
TRACK 07 AUDIO
TITLE "General Mojo's Well Laid Plan"
ISRC USAR11500027
REM REPLAYGAIN_TRACK_GAIN -2.86 dB
REM REPLAYGAIN_TRACK_PEAK 1.000000
INDEX 00 05:51:62
FILE "07 - General Mojo's Well Laid Plan.flac" WAVE
INDEX 01 00:00:00
TRACK 08 AUDIO
TITLE "Toronto Under the Sign of Capricorn"
ISRC USBB11500003
REM REPLAYGAIN_TRACK_GAIN -4.09 dB
REM REPLAYGAIN_TRACK_PEAK 0.994843
INDEX 00 04:16:65
FILE "08 - Toronto Under the Sign of Capricorn.flac" WAVE
INDEX 01 00:00:00
TRACK 09 AUDIO
TITLE "For Philip and Django"
ISRC USBB11500004
REM REPLAYGAIN_TRACK_GAIN -1.79 dB
REM REPLAYGAIN_TRACK_PEAK 0.966309
INDEX 00 08:08:63
FILE "09 - For Philip and Django.flac" WAVE
INDEX 01 00:00:00
TRACK 10 AUDIO
TITLE "Rodrigo Reflections"
ISRC USBB11500005
REM REPLAYGAIN_TRACK_GAIN -3.87 dB
REM REPLAYGAIN_TRACK_PEAK 0.997467
INDEX 00 04:31:61
FILE "10 - Rodrigo Reflections.flac" WAVE
INDEX 01 00:00:00

Отчет CUETools

[CUETools log; Date: 04.03.2018 4:55:55; Version: 2.1.5]
[CTDB TOCID: Zd7StQwkhX2PD_0MNk.52lGjk3g-] found.
Track | CTDB Status
1 | (16/17) Accurately ripped
2 | (16/17) Accurately ripped
3 | (16/17) Accurately ripped
4 | (16/17) Accurately ripped
5 | (16/17) Accurately ripped
6 | (16/17) Accurately ripped
7 | (16/17) Accurately ripped
8 | (15/17) Accurately ripped
9 | (16/17) Accurately ripped
10 | (15/17) Accurately ripped
[AccurateRip ID: 00152beb-00aa6145-6d0d9c0a] found.
Track [ CRC | V2 ] Status
01 [8dc6da89|5c689184] (0+4/4) Accurately ripped
02 [c48dd10b|0b962c66] (0+4/4) Accurately ripped
03 [d45cc559|52b74c11] (0+4/4) Accurately ripped
04 [c41417ff|e35a62e6] (0+4/4) Accurately ripped
05 [a59143ef|d11fe797] (0+4/4) Accurately ripped
06 [09799d2e|67a5c1c9] (0+4/4) Accurately ripped
07 [90b53f61|06a2fe51] (0+4/4) Accurately ripped
08 [f9d15b72|9881eb00] (0+4/4) Accurately ripped
09 [d886b323|17f8b334] (0+4/4) Accurately ripped
10 [1198ddef|2d0e621f] (0+4/4) Accurately ripped
Track Peak [ CRC32 ] [W/O NULL]
-- 100,0 [1C65226A] [D25D40A8]
01 99,2 [CB9EEF00] [BE4258B7]
02 98,1 [E798A3E5] [0CF7D9CE]
03 98,1 [77C2AC56] [EF2D87AC]
04 98,6 [5B12D977] [FCDD011E]
05 99,6 [F13D1C27] [4F00899E]
06 99,9 [EA68003C] [70553C10]
07 100,0 [C19A42F4] [2E70F41A]
08 99,4 [9AE02F40] [5C180D80]
09 96,6 [30AAC839] [DA19BD3A]
10 99,7 [9A6E6696] [DC67EE9D]

AllMusic Review by Eugene Chadbourne

Intermittently on the road as an acoustic duo between gaps in the schedules of their respective ultra-hip fusion bands, Larry Coryell and Steve Khan managed to record several shows and then panned the tape stream to find the nuggets for posterity. There are choices that might have been made out of the fashions of the day, such as the version of Chick Corea's "Spain" that opens the album's first side. Thankfully there are also selections that are here because both guitarists must have realized they were playing magnificently.
Coryell's flair for Wayne Shorter extends beyond simply mastering the tunes to conceptualizing unique guitar settings. Parts of "Juju"'s head are pronounced in simple, chiming harmonics, a delightful way of pointing out that these players understand the guitar in its totality, not just the parts of it that can be used to impress speedfreaks. The hot version of "Footprints" doesn't really express the mystery of Shorter's original mood, yet is terrifically in line with the Django Reinhardt approach to playing a tune, once again full of the kinds of activities fans of acoustic guitar music will find pleasurable.
"St. Gallen" is, in some ways, a remarkable performance. The long introduction sounds like a solo from Coryell, parts of which might be the missing link between him and Derek Bailey. An episode thick with minor seconds and low, throbbing dissonance is only one of many stops on a route that in some ways is as breathtaking as the "milk run" that leaves the St. Gallen station and heads into the Swiss Alps, stopping at farmhouses along the way to pick up fresh dairy shipments. Prior to evoking this image, the piece in its initial moments includes passages of purely show-off rapidity culminating in a lethal swipe at the bridge, the equivalent of a mad critic throwing a knife at a fusion guitarist mid-solo stream.
Khan's admiration for his partner is evident from the liner notes alone. His own style is edgy and observant, and while he doesn't sound simply like someone trying to keep up, he too easily agrees to participate in moments of pieces that come off as more or less typical jamming, such as "Son of Stiff Neck." As for the previously mentioned "Spain," it's too bad they went there -- although anybody performing on this scene during this era was expected to play this "In the Midnight Hour" of jazz standards. A chord emphasized much beyond its importance immediately sets the stage for a flat performance in which the main question listeners might ask themselves is why are there so many notes in the theme -- not the desired reaction when performing a head. The live recording quality is excellent, the tracks fading quickly when the applause begins.
[cybertorrent.ru].t29519.torrent 
Торрент: Зарегистрирован [ 2018-03-05 03:55 ] · 329C116FBD74B65C96857FE50D8FE74B86B15F9B

Скачать .torrent

Скачать

15 KB

Статус: проверено
Скачан: 0 раз
Размер: 333 MB
terms.php
[Профиль] [ЛС]
Показать сообщения:    
Ответить на тему

Текущее время: 23-Фев 15:29

Часовой пояс: UTC + 3



Вы не можете начинать темы
Вы не можете отвечать на сообщения
Вы не можете редактировать свои сообщения
Вы не можете удалять свои сообщения
Вы не можете голосовать в опросах
Вы не можете прикреплять файлы к сообщениям
Вы можете скачивать файлы