BitTorrent клиенты



Детоксикация / D-Tox (Джим Гиллеспи / Jim Gillespie) [2002, Германия, США, боевик, триллер, драма, криминал, детектив, BDRip] 2x MVO + DVO + VO (Е. Гаевский) + Sub Rus, Eng + Original Eng

Ответить на тему
Статистика раздачи
Размер:  2,8 GB   |    Зарегистрирован:  11 месяцев 10 дней   |    Скачан:  0 раз

Полного источника не было: Никогда

 
   
 
 
Автор Сообщение

Ведьмочка ®

Пол: Не указан

Стаж: 1 год

Сообщений: 863

Создавать темы 06-Мар-2018 10:49

[Цитировать]

Детоксикация / D-Tox- Страна: Германия, США
Жанр: боевик, триллер, драма, криминал, детектив
Год выпуска: 2002
Продолжительность: 01:35:44
Перевод 1: Профессиональный (многоголосый закадровый)
Перевод 2: Профессиональный (многоголосый закадровый) Первый канал
Перевод 3: Профессиональный (двухголосый закадровый) Петр Гланц и Инна Королева
Перевод 4: Одноголосый закадровый Евгений Гаевский
Субтитры: русские, английские
Оригинальная аудиодорожка: английский-Режиссер: Джим Гиллеспи / Jim Gillespie
В ролях: Сильвестр Сталлоне, Чарльз С. Даттон, Полли Уокер, Крис Кристофферсон, Миф, Кристофер Фулфорд, Джеффри Райт, Том Беренджер, Стивен Лэнг, Алан С. Петерсон, Хротгар Мэтьюз, Анджела Альварадо, Роберт Проски, Роберт Патрик, Кортни Б. Вэнс, Шон Патрик Флэнери, Тим Генри, Дина Мейер, Рэнс Ховард, Фрэнк Пеллегрино, Джеймс Кидни, Ив Камерон, Харрисон Коу, Питер Флемминг, Крис Нельсон Норрис, Билл МакКензи, Йен Гшвинд, Дэвид Льюис, Джон Тимоти Ботка, Джеймс Ральф-Описание: Агент ФБР Джейк Малой стал свидетелем зверского убийства. Джейку так и не удалось справиться с пережитым шоком: он начинает искать забвение в алкоголе. Пытаясь вернуться к нормальной жизни, агент соглашается пройти детоксикацию в закрытой клинике для «опустившихся» полицейских. Клиника отрезана от внешнего мира и расположена глубоко в заснеженном лесу. Здесь проходит курс лечения разношерстная группа пациентов — служителей закона «с отклонениями».
Однако эта компания так и не успеет излечиться от пагубных пристрастий: их пребывание в клинике превращается в жуткий и кровавый кошмар. Мрачные стены лечебницы содрогаются от невероятных по своей жестокости убийств. Кто-то начинает умерщвлять обитателей клиники одного за другим. И, что самое страшное, агент Малой узнает почерк убийцы…- -
Качество видео: BDRip
Формат видео: AVI
Видео: XviD 73, 720x304, 23.976 fps, 2176 kbps
Аудио 1: AC3, 448 kbps, 6 channels, 48000 Hz - MVO (CEE)
Аудио 2: AC3, 192 kbps, 2 channels, 48000 Hz - MVO (Первый канал)
Аудио 3: AC3, 448 kbps, 6 channels, 48000 Hz - DVO (Петр Гланц и Инна Королева)
Аудио 4: AC3, 448 kbps, 6 channels, 48000 Hz - ENG отдельным файлом
Аудио 5: AC3, 448 kbps, 6 channels, 48000 Hz - VO (Гаевский) отдельным файлом
Формат субтитров: softsub (SRT) - русские, английские отдельными файлами
-

MediaInfo

Format : AVI
Format/Info : Audio Video Interleave
Format profile : OpenDML
File size : 2.20 GiB
Duration : 1 h 35 min
Overall bit rate : 3 288 kb/s
Movie name : Детоксикация / D-Tox (2002) BDRip
Writing application : VirtualDubMod 1.5.10.3 (build 2550/release)
Writing library : VirtualDubMod build 2550/release
Video
ID : 0
Format : MPEG-4 Visual
Format profile : Advanced Simple@L5
Format settings : BVOP1 / Custom Matrix
Format settings, BVOP : 1
Format settings, QPel : No
Format settings, GMC : No warppoints
Format settings, Matrix : Custom
Codec ID : XVID
Codec ID/Hint : XviD
Duration : 1 h 35 min
Bit rate : 2 176 kb/s
Width : 720 pixels
Height : 304 pixels
Display aspect ratio : 2.35:1
Frame rate : 23.976 (24000/1001) FPS
Original frame rate : 23.976 (23976/1000) FPS
Color space : YUV
Chroma subsampling : 4:2:0
Bit depth : 8 bits
Scan type : Progressive
Compression mode : Lossy
Bits/(Pixel*Frame) : 0.415
Stream size : 1.46 GiB (66%)
Writing library : XviD 73
Audio #1
ID : 1
Format : AC-3
Format/Info : Audio Coding 3
Codec ID : 2000
Duration : 1 h 35 min
Bit rate mode : Constant
Bit rate : 448 kb/s
Channel(s) : 6 channels
Channel positions : Front: L C R, Side: L R, LFE
Sampling rate : 48.0 kHz
Frame rate : 31.250 FPS (1536 SPF)
Bit depth : 16 bits
Compression mode : Lossy
Stream size : 307 MiB (14%)
Alignment : Split accross interleaves
Interleave, duration : 42 ms (1.00 video frame)
Interleave, preload duration : 500 ms
Title : MVO (CEE)
Service kind : Complete Main
Audio #2
ID : 2
Format : AC-3
Format/Info : Audio Coding 3
Codec ID : 2000
Duration : 1 h 35 min
Bit rate mode : Constant
Bit rate : 192 kb/s
Channel(s) : 2 channels
Channel positions : Front: L R
Sampling rate : 48.0 kHz
Frame rate : 31.250 FPS (1536 SPF)
Bit depth : 16 bits
Compression mode : Lossy
Stream size : 131 MiB (6%)
Alignment : Split accross interleaves
Interleave, duration : 42 ms (1.00 video frame)
Interleave, preload duration : 500 ms
Title : MVO (Первый канал)
Service kind : Complete Main
Audio #3
ID : 3
Format : AC-3
Format/Info : Audio Coding 3
Codec ID : 2000
Duration : 1 h 35 min
Bit rate mode : Constant
Bit rate : 448 kb/s
Channel(s) : 6 channels
Channel positions : Front: L C R, Side: L R, LFE
Sampling rate : 48.0 kHz
Frame rate : 31.250 FPS (1536 SPF)
Bit depth : 16 bits
Compression mode : Lossy
Stream size : 307 MiB (14%)
Alignment : Split accross interleaves
Interleave, duration : 42 ms (1.00 video frame)
Interleave, preload duration : 500 ms
Title : DVO (Петр Гланц и Инна Королева)
Service kind : Complete Main

Скриншоты


Резервные скриншоты

-Торрент перезалит в 10:20 по МСК

причина перезалива

Удалена дорожка
Цитата:Аудио 6: AC3, 192 kbps, 2 channels, 48000 Hz - DVO (Любительский) отдельным файлом
в связи с
Цитата:
Внимание! В одной раздаче не допускается одновременное размещение любительских переводов вместе с профессиональными и/или авторскими.
[cybertorrent.ru].t29820.torrent 
Торрент: Зарегистрирован [ 2018-03-06 10:55 ] · 286BEFF25BD1E29F0C3BFA8E1476776B90B3F66C

Скачать .torrent

Скачать

15 KB

Статус: проверено
Скачан: 0 раз
Размер: 2,8 GB
terms.php
[Профиль] [ЛС]
Показать сообщения:    
Ответить на тему

Текущее время: 17-Фев 08:23

Часовой пояс: UTC + 3



Вы не можете начинать темы
Вы не можете отвечать на сообщения
Вы не можете редактировать свои сообщения
Вы не можете удалять свои сообщения
Вы не можете голосовать в опросах
Вы не можете прикреплять файлы к сообщениям
Вы можете скачивать файлы