BitTorrent клиенты



(Classical) Telemann, Pfeiffer, Graun - Concerti - Hille Perl, Freiburger Barockorchester - 2012, FLAC (image+.cue) lossless

Ответить на тему
Статистика раздачи
Размер:  341 MB   |    Зарегистрирован:  11 месяцев 10 дней   |    Скачан:  1 раз

Полного источника не было: 5 дней

 
   
 
 
Автор Сообщение

Red ®

Пол: Не указан

Стаж: 1 год

Сообщений: 205

Создавать темы 06-Мар-2018 10:49

[Цитировать]

Telemann, Pfeiffer, Graun - Concerti - Hille Perl, Freiburger Barockorchester
Жанр: Classical
Страна-производитель диска: Germany
Год издания диска: 2012
Издатель (лейбл): Deutsche Harmonia Mundi
Номер по каталогу: 88697824002
Дата записи: 2010
Аудиокодек: FLAC
Тип рипа: image+.cue
Битрейт аудио: lossless
Продолжительность: 75:03
Источник: собственный рип
Наличие сканов в содержимом раздачи: да
Треклист:
Georg Philipp Telemann (1681-1767)
[1]-[4] Concerto for recorder, viola da gamba & Orchestra, TWV 52:a1
Carl Friedrich Abel (1723-1787)
[5] Adagio & Allegro (from MS Drexel 5871)
Johann Pfeiffer (1697-1761)
[6]-[9] Concerto in A major for viola da gamba, two violins & b.c.
Carl Friedrich Abel
[10] Interludium in D (from MS Drexel 5871)
Johann Gottlieb Graun (1702-1771)
[11]-[13] Concerto in G major for viola da gamba, strings & b.c.
Carl Friedrich Abel
[14] Arpeggiata und Fantasia (from MS Drexel 5871)
Исполнители:
Hille Perl viola da gamba
Freiburger Barockorchester

Лог создания рипа

Exact Audio Copy V1.3 from 2. September 2016
EAC extraction logfile from 26. August 2017, 18:49
Hille Perl, Freiburger Barockorchester / Telemann, Pfeiffer, Graun - Concerti
Used drive : TSSTcorpCD/DVDW SH-S182M Adapter: 1 ID: 1
Read mode : Secure
Utilize accurate stream : Yes
Defeat audio cache : Yes
Make use of C2 pointers : No
Read offset correction : 6
Overread into Lead-In and Lead-Out : No
Fill up missing offset samples with silence : Yes
Delete leading and trailing silent blocks : No
Null samples used in CRC calculations : Yes
Used interface : Native Win32 interface for Win NT & 2000
Used output format : User Defined Encoder
Selected bitrate : 128 kBit/s
Quality : High
Add ID3 tag : No
Command line compressor : C:\Program Files (x86)\Exact Audio Copy\Flac\flac.exe
Additional command line options : -V -8 -T "Date=%year%" -T "Genre=%genre%" %source%
TOC of the extracted CD
Track | Start | Length | Start sector | End sector
---------------------------------------------------------
1 | 0:00.00 | 4:05.17 | 0 | 18391
2 | 4:05.17 | 4:22.15 | 18392 | 38056
3 | 8:27.32 | 3:45.22 | 38057 | 54953
4 | 12:12.54 | 3:46.69 | 54954 | 71972
5 | 15:59.48 | 7:01.26 | 71973 | 103573
6 | 23:00.74 | 3:29.15 | 103574 | 119263
7 | 26:30.14 | 2:56.18 | 119264 | 132481
8 | 29:26.32 | 4:25.55 | 132482 | 152411
9 | 33:52.12 | 3:05.19 | 152412 | 166305
10 | 36:57.31 | 2:27.57 | 166306 | 177387
11 | 39:25.13 | 5:24.42 | 177388 | 201729
12 | 44:49.55 | 8:43.72 | 201730 | 241026
13 | 53:33.52 | 7:26.53 | 241027 | 274529
14 | 61:00.30 | 6:26.73 | 274530 | 303552
Range status and errors
Selected range
Filename C:\temp\Telemann, Pfeiffer, Graun - Concerti - Hille Perl\Telemann, Pfeiffer, Graun - Concerti.wav
Peak level 98.8 %
Extraction speed 8.0 X
Range quality 100.0 %
Test CRC 831AAAEE
Copy CRC 831AAAEE
Copy OK
No errors occurred
AccurateRip summary
Track 1 accurately ripped (confidence 36) [C82C7C6A] (AR v2)
Track 2 accurately ripped (confidence 36) [7D6F1576] (AR v2)
Track 3 accurately ripped (confidence 36) [CDC8F118] (AR v2)
Track 4 accurately ripped (confidence 36) [D1E59039] (AR v2)
Track 5 accurately ripped (confidence 36) [A374A3BB] (AR v2)
Track 6 accurately ripped (confidence 36) [25524EB8] (AR v2)
Track 7 accurately ripped (confidence 36) [784BA4A9] (AR v2)
Track 8 accurately ripped (confidence 36) [07C9F484] (AR v2)
Track 9 accurately ripped (confidence 36) [6D461AB0] (AR v2)
Track 10 accurately ripped (confidence 36) [970419C0] (AR v2)
Track 11 accurately ripped (confidence 36) [6B558455] (AR v2)
Track 12 accurately ripped (confidence 36) [99E794F6] (AR v2)
Track 13 accurately ripped (confidence 36) [E0D42204] (AR v2)
Track 14 accurately ripped (confidence 36) [3D9E6D22] (AR v2)
All tracks accurately ripped
End of status report
==== Log checksum E2116D25BAFE4DFCCAC83AD21C8A0BBECAD12E39604ED57F80B105078E407A2C ====
[cybertorrent.ru].t29821.torrent 
Торрент: Зарегистрирован [ 2018-03-06 10:55 ] · 7732E4699F1146BEA12A35ED26211EE208D6CE5C

Скачать .torrent

Скачать

28 KB

Статус: проверено
Скачан: 1 раз
Размер: 341 MB
terms.php
[Профиль] [ЛС]
Показать сообщения:    
Ответить на тему

Текущее время: 17-Фев 08:16

Часовой пояс: UTC + 3



Вы не можете начинать темы
Вы не можете отвечать на сообщения
Вы не можете редактировать свои сообщения
Вы не можете удалять свои сообщения
Вы не можете голосовать в опросах
Вы не можете прикреплять файлы к сообщениям
Вы можете скачивать файлы