BitTorrent клиенты



(PsyTrance) [CD] VA - Map Of Goa Vol. 3 (2 CD) - 2007, FLAC (tracks+.cue), lossless

Ответить на тему
Статистика раздачи
Размер:  974 MB   |    Зарегистрирован:  11 месяцев 3 дня   |    Скачан:  0 раз

Полного источника не было: Никогда

 
   
 
 
Автор Сообщение

поляк ®

Пол: Не указан

Стаж: 11 месяцев 17 дней

Сообщений: 389

Создавать темы 13-Мар-2018 12:13

[Цитировать]

Map Of Goa Vol. 3 (2 CD)
Жанр: PsyTrance
Носитель: CD
Страна-производитель диска (релиза): UK
Год издания: 2007
Издатель (лейбл): Yellow Sunshine Explosion
Номер по каталогу: YSE 168-2-DCD
Аудиокодек: FLAC (*.flac)
Тип рипа: tracks+.cue
Битрейт аудио: lossless
Продолжительность: 69:14 + 70:03
Источник (релизер): личный CD
Наличие сканов в содержимом раздачи: да
Треклист:
CD 1
01. Atomic Culture - Radio Active
02. Gataka - Tripping Out
03. E-Jekt - The Antipop
04. Freakulizer - Are We There
05. Astrix - Poison (Wrecked Machines Remix)
06. Aquila - Uncontrolled
07. Time Lock - Time Theory
08. DNA - Synthetic D.N.A. (Live Mix)
09. Sangeet - Biophysical Structure (unreleased)
CD 2
01. Brain Damage - Undertone
02. U-Recken - The Island
03. Protonica - Airflow (unreleased)
04. Psytrain - Nigthmares
05. Prahlad - Man Up
06. Cosmic Tone vs. Noga - It's Not Like That At All (Cosmic Tone Rmx)
07. Electro Sun - Death Wish (DJ Nemesis Rmx)
08. Future Prophecy - Unisex (Freak Show Rmx)(unreleased)
09. Slackjoint - Mr Balboa (ureleased)

logs and sheets

Log EAC CD 1

Отчёт EAC об извлечении, выполненном 7. марта 2018, 9:05
- / Map Of Goa Vol.3 - CD 1
Дисковод: Optiarc DVD RW AD-7200A Adapter: 1 ID: 0
Режим чтения : Достоверность
Использование точного потока : Да
Отключение кэша аудио : Да
Использование указателей C2 : Нет
Коррекция смещения при чтении : 48
Способность читать области Lead-in и Lead-out : Нет
Заполнение пропущенных сэмплов тишиной : Да
Удаление блоков с тишиной в начале и конце : Нет
При вычислениях CRC использовались нулевые сэмплы : Да
Интерфейс : Встроенный Win32-интерфейс для Win NT/2000
Обработка зазоров : Добавлено к предыдущему треку
Выходной формат : Пользовательский кодировщик
Выбранный битрейт : 128 kBit/s
Качество : Высокий
Добавление ID3-тега : Нет
Утилита сжатия : C:\Program Files\Exact Audio Copy\FLAC\FLAC.EXE
Дополнительные параметры : -6 -V -T "ARTIST=%artist%" -T "TITLE=%title%" -T "ALBUM=%albumtitle%" -T "DATE=%year%" -T "TRACKNUMBER=%tracknr%" -T "GENRE=%genre%" -T "COMMENT=%comment%" -T "BAND=%albuminterpret%" -T "ALBUMARTIST=%albuminterpret%" -T "COMPOSER=%composer%" %haslyrics%--tag-from-file=LYRICS="%lyricsfile%"%haslyrics% -T "DISCNUMBER=%cdnumber%" -T "TOTALDISCS=%totalcds%" -T "TOTALTRACKS=%numtracks%" %hascover%--picture="%coverfile%"%hascover% %source% -o %dest%
TOC извлечённого CD
Трек | Старт | Длительность | Начальный сектор | Конечный сектор
---------------------------------------------------------------------
1 | 0:00.00 | 9:15.00 | 0 | 41624
2 | 9:15.00 | 7:26.25 | 41625 | 75099
3 | 16:41.25 | 8:19.67 | 75100 | 112591
4 | 25:01.17 | 7:31.27 | 112592 | 146443
5 | 32:32.44 | 8:25.69 | 146444 | 184387
6 | 40:58.38 | 6:14.33 | 184388 | 212470
7 | 47:12.71 | 7:51.15 | 212471 | 247810
8 | 55:04.11 | 7:17.29 | 247811 | 280614
9 | 62:21.40 | 6:56.67 | 280615 | 311881
Трек 1
Имя файла C:\Users\User\Documents\01. Atomic Culture - Radio Active.wav
Длина предзазора 0:00:02.00
Пиковый уровень 75.0 %
Скорость извлечения 2.9 X
Качество трека 100.0 %
CRC теста 6A434AE4
CRC копии 6A434AE4
Трек не обнаружен в базе AccurateRip
Копирование... OK
Трек 2
Имя файла C:\Users\User\Documents\02. Gataka - Tripping Out.wav
Длина предзазора 0:00:01.00
Пиковый уровень 80.3 %
Скорость извлечения 3.3 X
Качество трека 100.0 %
CRC теста BF1F5A7A
CRC копии BF1F5A7A
Трек не обнаружен в базе AccurateRip
Копирование... OK
Трек 3
Имя файла C:\Users\User\Documents\03. E-Jekt - The Antipop.wav
Длина предзазора 0:00:01.00
Пиковый уровень 85.1 %
Скорость извлечения 3.8 X
Качество трека 100.0 %
CRC теста 8BB467A7
CRC копии 8BB467A7
Трек не обнаружен в базе AccurateRip
Копирование... OK
Трек 4
Имя файла C:\Users\User\Documents\04. Freakulizer - Are We There.wav
Длина предзазора 0:00:01.00
Пиковый уровень 97.7 %
Скорость извлечения 4.2 X
Качество трека 100.0 %
CRC теста 80C92B9C
CRC копии 80C92B9C
Трек не обнаружен в базе AccurateRip
Копирование... OK
Трек 5
Имя файла C:\Users\User\Documents\05. Astrix - Poison (Wrecked Machines Remix).wav
Длина предзазора 0:00:01.00
Пиковый уровень 90.6 %
Скорость извлечения 4.3 X
Качество трека 99.9 %
CRC теста A46F543F
CRC копии A46F543F
Трек не обнаружен в базе AccurateRip
Копирование... OK
Трек 6
Имя файла C:\Users\User\Documents\06. Aquila - Uncontrolled.wav
Длина предзазора 0:00:01.00
Пиковый уровень 97.6 %
Скорость извлечения 4.7 X
Качество трека 100.0 %
CRC теста 8A435C4C
CRC копии 8A435C4C
Трек не обнаружен в базе AccurateRip
Копирование... OK
Трек 7
Имя файла C:\Users\User\Documents\07. Time Lock - Time Theory.wav
Длина предзазора 0:00:01.00
Пиковый уровень 83.2 %
Скорость извлечения 5.1 X
Качество трека 100.0 %
CRC теста F3626606
CRC копии F3626606
Трек не обнаружен в базе AccurateRip
Копирование... OK
Трек 8
Имя файла C:\Users\User\Documents\08. DNA - Synthetic D.N.A. (Live Mix).wav
Длина предзазора 0:00:01.00
Пиковый уровень 91.2 %
Скорость извлечения 5.3 X
Качество трека 100.0 %
CRC теста 6FBD3380
CRC копии 6FBD3380
Трек не обнаружен в базе AccurateRip
Копирование... OK
Трек 9
Имя файла C:\Users\User\Documents\09. Sangeet - Biophysical Structure (unreleased).wav
Длина предзазора 0:00:01.00
Пиковый уровень 97.7 %
Скорость извлечения 5.5 X
Качество трека 100.0 %
CRC теста 39BB0210
CRC копии 39BB0210
Трек не обнаружен в базе AccurateRip
Копирование... OK
Ни одного трека нет в базе AccurateRip
Ошибок не произошло
Конец отчёта
==== Контрольная сумма отчёта 75707AF2127A5658FDF80A9F123D38C54D8E66D9FB79788DE175FC36BDC7793B ====

cue CD 1

REM GENRE PsyTrance
REM DATE 2007
REM DISCID 6D103E09
REM COMMENT "ExactAudioCopy v1.3"
CATALOG 5028557116826
PERFORMER ""
TITLE "Map Of Goa Vol.3 - CD 1"
REM COMPOSER ""
FILE "01. Atomic Culture - Radio Active.wav" WAVE
TRACK 01 AUDIO
TITLE "Radio Active"
PERFORMER "Atomic Culture"
REM COMPOSER ""
INDEX 01 00:00:00
TRACK 02 AUDIO
TITLE "Tripping Out"
PERFORMER "Gataka"
REM COMPOSER ""
INDEX 00 09:14:00
FILE "02. Gataka - Tripping Out.wav" WAVE
INDEX 01 00:00:00
TRACK 03 AUDIO
TITLE "The Antipop"
PERFORMER "E-Jekt"
REM COMPOSER ""
INDEX 00 07:25:25
FILE "03. E-Jekt - The Antipop.wav" WAVE
INDEX 01 00:00:00
TRACK 04 AUDIO
TITLE "Are We There?"
PERFORMER "Freakulizer"
REM COMPOSER ""
INDEX 00 08:18:67
FILE "04. Freakulizer - Are We There.wav" WAVE
INDEX 01 00:00:00
TRACK 05 AUDIO
TITLE "Poison (Wrecked Machines Remix)"
PERFORMER "Astrix"
REM COMPOSER ""
INDEX 00 07:30:27
FILE "05. Astrix - Poison (Wrecked Machines Remix).wav" WAVE
INDEX 01 00:00:00
TRACK 06 AUDIO
TITLE "Uncontrolled"
PERFORMER "Aquila"
REM COMPOSER ""
INDEX 00 08:24:69
FILE "06. Aquila - Uncontrolled.wav" WAVE
INDEX 01 00:00:00
TRACK 07 AUDIO
TITLE "Time Theory"
PERFORMER "Time Lock"
REM COMPOSER ""
INDEX 00 06:13:33
FILE "07. Time Lock - Time Theory.wav" WAVE
INDEX 01 00:00:00
TRACK 08 AUDIO
TITLE "Synthetic D.N.A. (Live Mix)"
PERFORMER "DNA"
REM COMPOSER ""
INDEX 00 07:50:15
FILE "08. DNA - Synthetic D.N.A. (Live Mix).wav" WAVE
INDEX 01 00:00:00
TRACK 09 AUDIO
TITLE "Biophysical Structure (unreleased)"
PERFORMER "Sangeet"
REM COMPOSER ""
INDEX 00 07:16:29
FILE "09. Sangeet - Biophysical Structure (unreleased).wav" WAVE
INDEX 01 00:00:00

Log EAC CD 2

Отчёт EAC об извлечении, выполненном 7. марта 2018, 9:49
- / Map Of Goa Vol.3 - CD 2
Дисковод: Optiarc DVD RW AD-7200A Adapter: 1 ID: 0
Режим чтения : Достоверность
Использование точного потока : Да
Отключение кэша аудио : Да
Использование указателей C2 : Нет
Коррекция смещения при чтении : 48
Способность читать области Lead-in и Lead-out : Нет
Заполнение пропущенных сэмплов тишиной : Да
Удаление блоков с тишиной в начале и конце : Нет
При вычислениях CRC использовались нулевые сэмплы : Да
Интерфейс : Встроенный Win32-интерфейс для Win NT/2000
Обработка зазоров : Добавлено к предыдущему треку
Выходной формат : Пользовательский кодировщик
Выбранный битрейт : 128 kBit/s
Качество : Высокий
Добавление ID3-тега : Нет
Утилита сжатия : C:\Program Files\Exact Audio Copy\FLAC\FLAC.EXE
Дополнительные параметры : -6 -V -T "ARTIST=%artist%" -T "TITLE=%title%" -T "ALBUM=%albumtitle%" -T "DATE=%year%" -T "TRACKNUMBER=%tracknr%" -T "GENRE=%genre%" -T "COMMENT=%comment%" -T "BAND=%albuminterpret%" -T "ALBUMARTIST=%albuminterpret%" -T "COMPOSER=%composer%" %haslyrics%--tag-from-file=LYRICS="%lyricsfile%"%haslyrics% -T "DISCNUMBER=%cdnumber%" -T "TOTALDISCS=%totalcds%" -T "TOTALTRACKS=%numtracks%" %hascover%--picture="%coverfile%"%hascover% %source% -o %dest%
TOC извлечённого CD
Трек | Старт | Длительность | Начальный сектор | Конечный сектор
---------------------------------------------------------------------
1 | 0:00.00 | 7:15.29 | 0 | 32653
2 | 7:15.29 | 7:41.40 | 32654 | 67268
3 | 14:56.69 | 8:40.24 | 67269 | 106292
4 | 23:37.18 | 7:37.50 | 106293 | 140617
5 | 31:14.68 | 7:00.07 | 140618 | 172124
6 | 38:15.00 | 9:17.60 | 172125 | 213959
7 | 47:32.60 | 6:31.46 | 213960 | 243330
8 | 54:04.31 | 7:24.15 | 243331 | 276645
9 | 61:28.46 | 8:38.15 | 276646 | 315510
Трек 1
Имя файла C:\Users\User\Documents\01. Brain Damage - Undertone.wav
Длина предзазора 0:00:02.00
Пиковый уровень 97.7 %
Скорость извлечения 2.8 X
Качество трека 100.0 %
CRC теста 46FCC856
CRC копии 46FCC856
Трек не обнаружен в базе AccurateRip
Копирование... OK
Трек 2
Имя файла C:\Users\User\Documents\02. U-Recken - The Island.wav
Длина предзазора 0:00:01.00
Пиковый уровень 97.7 %
Скорость извлечения 3.3 X
Качество трека 100.0 %
CRC теста F741882F
CRC копии F741882F
Трек не обнаружен в базе AccurateRip
Копирование... OK
Трек 3
Имя файла C:\Users\User\Documents\03. Protonica - Airflow (unreleased).wav
Длина предзазора 0:00:01.00
Пиковый уровень 97.7 %
Скорость извлечения 3.7 X
Качество трека 100.0 %
CRC теста BC99811B
CRC копии BC99811B
Трек не обнаружен в базе AccurateRip
Копирование... OK
Трек 4
Имя файла C:\Users\User\Documents\04. Psytrain - Nigthmares.wav
Длина предзазора 0:00:01.00
Пиковый уровень 95.5 %
Скорость извлечения 4.1 X
Качество трека 100.0 %
CRC теста 576A22D1
CRC копии 576A22D1
Трек не обнаружен в базе AccurateRip
Копирование... OK
Трек 5
Имя файла C:\Users\User\Documents\05. Prahlad - Man Up.wav
Длина предзазора 0:00:01.00
Пиковый уровень 97.7 %
Скорость извлечения 4.4 X
Качество трека 100.0 %
CRC теста 0D272292
CRC копии 0D272292
Трек не обнаружен в базе AccurateRip
Копирование... OK
Трек 6
Имя файла C:\Users\User\Documents\06. Cosmic Tone vs. Noga - It's Not Like That At All (Cosmic Tone Rmx).wav
Длина предзазора 0:00:01.00
Пиковый уровень 89.1 %
Скорость извлечения 4.9 X
Качество трека 100.0 %
CRC теста F1EB16CE
CRC копии F1EB16CE
Трек не обнаружен в базе AccurateRip
Копирование... OK
Трек 7
Имя файла C:\Users\User\Documents\07. Electro Sun - Death Wish (DJ Nemesis Rmx).wav
Длина предзазора 0:00:01.00
Пиковый уровень 83.1 %
Скорость извлечения 5.0 X
Качество трека 100.0 %
CRC теста B974FBE4
CRC копии B974FBE4
Трек не обнаружен в базе AccurateRip
Копирование... OK
Трек 8
Имя файла C:\Users\User\Documents\08. Future Prophecy - Unisex (Freak Show Rmx)(unreleased).wav
Длина предзазора 0:00:01.00
Пиковый уровень 90.1 %
Скорость извлечения 4.9 X
Качество трека 99.9 %
CRC теста 47E6A93A
CRC копии 47E6A93A
Трек не обнаружен в базе AccurateRip
Копирование... OK
Трек 9
Имя файла C:\Users\User\Documents\09. Slackjoint - Mr Balboa (unreleased).wav
Длина предзазора 0:00:01.00
Пиковый уровень 97.7 %
Скорость извлечения 5.6 X
Качество трека 100.0 %
CRC теста 9299CB00
CRC копии 9299CB00
Трек не обнаружен в базе AccurateRip
Копирование... OK
Ни одного трека нет в базе AccurateRip
Ошибок не произошло
Конец отчёта
==== Контрольная сумма отчёта DF729C56EA6FD791D178055A5EE5F645A9ACF735B45877F672E4F5B1BEE6334C ====

cue CD 2

REM GENRE PsyTrance
REM DATE 2007
REM DISCID 96106E09
REM COMMENT "ExactAudioCopy v1.3"
CATALOG 5028557116826
PERFORMER ""
TITLE "Map Of Goa Vol.3 - CD 2"
REM COMPOSER ""
FILE "01. Brain Damage - Undertone.wav" WAVE
TRACK 01 AUDIO
TITLE "Undertone"
PERFORMER "Brain Damage"
REM COMPOSER ""
INDEX 01 00:00:00
TRACK 02 AUDIO
TITLE "The Island"
PERFORMER "U-Recken"
REM COMPOSER ""
INDEX 00 07:14:29
FILE "02. U-Recken - The Island.wav" WAVE
INDEX 01 00:00:00
TRACK 03 AUDIO
TITLE "Airflow (unreleased)"
PERFORMER "Protonica"
REM COMPOSER ""
INDEX 00 07:40:40
FILE "03. Protonica - Airflow (unreleased).wav" WAVE
INDEX 01 00:00:00
TRACK 04 AUDIO
TITLE "Nigthmares"
PERFORMER "Psytrain"
REM COMPOSER ""
INDEX 00 08:39:24
FILE "04. Psytrain - Nigthmares.wav" WAVE
INDEX 01 00:00:00
TRACK 05 AUDIO
TITLE "Man Up"
PERFORMER "Prahlad"
REM COMPOSER ""
INDEX 00 07:36:50
FILE "05. Prahlad - Man Up.wav" WAVE
INDEX 01 00:00:00
TRACK 06 AUDIO
TITLE "It's Not Like That At All (Cosmic Tone Rmx)"
PERFORMER "Cosmic Tone vs. Noga"
REM COMPOSER ""
INDEX 00 06:59:07
FILE "06. Cosmic Tone vs. Noga - It's Not Like That At All (Cosmic Tone Rmx).wav" WAVE
INDEX 01 00:00:00
TRACK 07 AUDIO
TITLE "Death Wish (DJ Nemesis Rmx)"
PERFORMER "Electro Sun"
REM COMPOSER ""
INDEX 00 09:16:60
FILE "07. Electro Sun - Death Wish (DJ Nemesis Rmx).wav" WAVE
INDEX 01 00:00:00
TRACK 08 AUDIO
TITLE "Unisex (Freak Show Rmx)(unreleased)"
PERFORMER "Future Prophecy"
REM COMPOSER ""
INDEX 00 06:30:46
FILE "08. Future Prophecy - Unisex (Freak Show Rmx)(unreleased).wav" WAVE
INDEX 01 00:00:00
TRACK 09 AUDIO
TITLE "Mr Balboa (unreleased)"
PERFORMER "Slackjoint"
REM COMPOSER ""
INDEX 00 07:23:15
FILE "09. Slackjoint - Mr Balboa (unreleased).wav" WAVE
INDEX 01 00:00:00

Лог проверки качества

CD 1

-----------------------
DON'T MODIFY THIS FILE
-----------------------
PERFORMER: auCDtect Task Manager, ver. 1.6.0 RC1 build 1.6.0.1
Copyright (c) 2008-2010 y-soft. All rights reserved
http://y-soft.org
ANALYZER: auCDtect: CD records authenticity detector, version 0.8.2
Copyright (c) 2004 Oleg Berngardt. All rights reserved.
Copyright (c) 2004 Alexander Djourik. All rights reserved.
FILE: 09. Sangeet - Biophysical Structure (unreleased).flac
Size: 52125249 Hash: F834BE3D609674558C70DF6E94F5735D Accuracy: -m0
Conclusion: CDDA 100%
Signature: C389626AA4B4454B545476D35AE848C6A5FE2FC7
FILE: 08. DNA - Synthetic D.N.A. (Live Mix).flac
Size: 52633654 Hash: 78C62FD979CCC7C9D063C3981D741D2D Accuracy: -m0
Conclusion: CDDA 100%
Signature: 23F9F5493FA9CAD76A52F112A51B4D2967F88D5D
FILE: 07. Time Lock - Time Theory.flac
Size: 59247173 Hash: 816F1D3C8E4D46D5D141FC1D2A735303 Accuracy: -m0
Conclusion: CDDA 100%
Signature: B97D590C2333280679B7A00FDA088626B158F968
FILE: 06. Aquila - Uncontrolled.flac
Size: 46538294 Hash: F58F64162086933296D79A0C207880E1 Accuracy: -m0
Conclusion: CDDA 100%
Signature: 82BF086B429AD3C7826CBFEA9C93AC694F4E8CFE
FILE: 05. Astrix - Poison (Wrecked Machines Remix).flac
Size: 58924204 Hash: 3C107419EE577DE8D387A67BE09CA4E5 Accuracy: -m0
Conclusion: CDDA 100%
Signature: 281ABAEEAF1AC5C563A293EE5A942DBF658EEAA0
FILE: 04. Freakulizer - Are We There.flac
Size: 52579804 Hash: 8361B0C85167080AB3BB91BB89B55FAC Accuracy: -m0
Conclusion: CDDA 100%
Signature: 19E6B3FF26AFFBA3DC784643FCDC80ED662611AB
FILE: 03. E-Jekt - The Antipop.flac
Size: 60011878 Hash: FC9EF80D361398121C3CFF7566F8F919 Accuracy: -m0
Conclusion: CDDA 100%
Signature: AFA5ADF6437370DE3A433577A5FBD079CCDECEB7
FILE: 02. Gataka - Tripping Out.flac
Size: 52997689 Hash: B06438C590CBA9D560BBCB12BAF712E1 Accuracy: -m0
Conclusion: CDDA 100%
Signature: DA99D0E1E1F267F7EBAF42E23CA47F13CBCDEC3F
FILE: 01. Atomic Culture - Radio Active.flac
Size: 66399282 Hash: A08BFE6BFB0F29387A3F40B970B880BF Accuracy: -m0
Conclusion: CDDA 100%
Signature: 4D1264EEEB0ECE50B3CA5F2DF6DEDA99E9704169

CD 2

-----------------------
DON'T MODIFY THIS FILE
-----------------------
PERFORMER: auCDtect Task Manager, ver. 1.6.0 RC1 build 1.6.0.1
Copyright (c) 2008-2010 y-soft. All rights reserved
http://y-soft.org
ANALYZER: auCDtect: CD records authenticity detector, version 0.8.2
Copyright (c) 2004 Oleg Berngardt. All rights reserved.
Copyright (c) 2004 Alexander Djourik. All rights reserved.
FILE: 09. Slackjoint - Mr Balboa (unreleased).flac
Size: 62241058 Hash: F6A228FBC74DF69FF7820A580F99ED81 Accuracy: -m0
Conclusion: CDDA 100%
Signature: 0BDCC778621C8F03787595382A9F8D968B2FBEC5
FILE: 08. Future Prophecy - Unisex (Freak Show Rmx)(unreleased).flac
Size: 55144362 Hash: 18E3253AFAE20910F909217A816D5BFC Accuracy: -m0
Conclusion: CDDA 100%
Signature: BC0F8D8969899E559256DF84CDA04C235C5301A3
FILE: 07. Electro Sun - Death Wish (DJ Nemesis Rmx).flac
Size: 48774047 Hash: 0B1A86A8E717167E3EB9DB2C6BDFAADE Accuracy: -m0
Conclusion: CDDA 100%
Signature: 9A0BE77351213460B659A303A0ECB802D20824D4
FILE: 06. Cosmic Tone vs. Noga - It's Not Like That At All (Cosmic Tone Rmx).flac
Size: 67857862 Hash: 819B20F5D565D454FD883AC424F9343A Accuracy: -m0
Conclusion: CDDA 100%
Signature: 3252673F39168AAFF4CE62C9B8EE3BB7B270D754
FILE: 05. Prahlad - Man Up.flac
Size: 49606245 Hash: 84D3DA0E5ADE2737C284EA73A460ACB9 Accuracy: -m0
Conclusion: CDDA 100%
Signature: CE10EA595029E6D38BB75F6A3A0FAC4D5096FC46
FILE: 04. Psytrain - Nigthmares.flac
Size: 50922928 Hash: 505267931C35358E7320529E852E73DB Accuracy: -m0
Conclusion: CDDA 100%
Signature: C742554A55C0FFADB2516352DACE6DBA988DF759
FILE: 03. Protonica - Airflow (unreleased).flac
Size: 57823173 Hash: 8E505E97D5996110B4E6A82B945F7243 Accuracy: -m0
Conclusion: CDDA 100%
Signature: 7BE0904F96E174E0A29A863527ED65699A93AC2C
FILE: 02. U-Recken - The Island.flac
Size: 54669991 Hash: 8DAE7B1A00EF039D7B6BC7DB670A3ABD Accuracy: -m0
Conclusion: CDDA 100%
Signature: 59DBF93ABE7A19A636E3F3ADA790872D2201CDE5
FILE: 01. Brain Damage - Undertone.flac
Size: 52529918 Hash: E21F28B40EE8CF9C0C02EF3CB70CD620 Accuracy: -m0
Conclusion: CDDA 100%
Signature: 81776F5756A3FBF635885A9A04EDA7A6A525E54B
07.03.2018 торрент перезалит (исправлены мелкие косяки)
[cybertorrent.ru].t31115.torrent 
Торрент: Зарегистрирован [ 2018-03-13 12:18 ] · 8C572ACBF1C6036E5D8E82866E5009442C096100

Скачать .torrent

Скачать

22 KB

Статус: проверено
Скачан: 0 раз
Размер: 974 MB
terms.php
[Профиль] [ЛС]
Показать сообщения:    
Ответить на тему

Текущее время: 17-Фев 09:34

Часовой пояс: UTC + 3



Вы не можете начинать темы
Вы не можете отвечать на сообщения
Вы не можете редактировать свои сообщения
Вы не можете удалять свои сообщения
Вы не можете голосовать в опросах
Вы не можете прикреплять файлы к сообщениям
Вы можете скачивать файлы