Статистика раздачи
Размер:  2,31 GB   |    Зарегистрирован:  6 месяцев 15 дней   |    Скачан:  0 раз

Полного источника не было: Никогда

 
   
 
 

soda ®

Пол:
Не указан
Стаж:
7 месяцев 4 дня
Сообщений:
228

Фанат
Жанр: боевик
Год выпуска: 1989
Продолжительность: 01:19:54-Режиссёр: Владимир Феоктистов
В ролях: Алексей Серебряков, Мартиньш Вилсонс, Анатолий Сливников, Юрий Горобец, Федор Сухов, Олег Кантемиров, Алексей Ванин, Мария Селянская, Татьяна Лаврентьева, Людмила Антонюк, Александра Свенская, Евгений Бахар-Описание: Непобедимый «Малыш» — фанат карате, полон светлых планов на будущее. Однако, невольное соучастие в ограблении, и только чудом вместо тюрьмы он попадает в армию. Оттуда возвращается жестокий зверь, боец без тени жалости даже к друзьям. Теперь его жизнь — рэкет и подпольные бои без правил. Он лучший всюду, но в финальном бою Малыш должен «лечь» — босс мафии по прозвищу Мэтр поставил огромные деньги на его противника. Малыш побеждает…-Доп. информация: Полная версия (как здесь)
Наполнение кадра больше чем здесь
Но детализация хуже
Имеются послерекламные баннеры (смотрим 8 и 12 скрины)
Семпл: 2минуты-Качество видео: DVB
Формат видео: MPEG-PS
Видео: MPEG Video, 720х576, 4:3, 25,000 кадров/сек, 3864 Кбит/сек
Аудио: MP2, 48,0 КГц, 192 Кбит/сек, 2 канала

Сравнение с TVRip

torrentarus
5 скринов

Сравнение с DVDRip

Пауэрлифтер
6 скринов

MediaInfo

Общее
Полное имя : Фанат.1989.mpg
Формат : MPEG-PS
Размер файла : 2,31 Гбайт
Продолжительность : 1 ч. 19 м.
Режим общего битрейта : Переменный
Общий поток : 4139 Кбит/сек
Видео
Идентификатор : 224 (0xE0)
Формат : MPEG Video
Версия формата : Version 2
Профиль формата : Main@Main
Настройки формата : CustomMatrix
Параметр BVOP формата : Нет
Параметр матрицы формата : Выборочная
Параметр GOP формата : Variable
Продолжительность : 1 ч. 19 м.
Вид битрейта : Переменный
Битрейт : 3864 Кбит/сек
Максимальный битрейт : 15,0 Мбит/сек
Ширина : 720 пикселей
Высота : 576 пикселей
Соотношение сторон : 4:3
Частота кадров : 25,000 кадров/сек
Стандарт вещания : PAL
Цветовое пространство : YUV
Субдискретизация насыщенности : 4:2:0
Битовая глубина : 8 бит
Метод сжатия : С потерями
Бит/(Пиксели*Кадры) : 0.373
Временной код первого кадра : 00:00:00:00
Оригинал временного кода : Group of pictures header
GOP, открыто/закрыто : Открыто
GOP, открыто/закрыто на первом кадре : Закрыто
Размер потока : 2,16 Гбайт (93%)
Аудио
Идентификатор : 192 (0xC0)
Формат : MPEG Audio
Версия формата : Version 1
Профиль формата : Layer 2
Продолжительность : 1 ч. 19 м.
Вид битрейта : Постоянный
Битрейт : 192 Кбит/сек
Каналы : 2 канала
Частота : 48,0 КГц
Частота кадров : 41,667 кадра/сек (1152 SPF)
Метод сжатия : С потерями
Задержка видео : 3 мс.
Размер потока : 110 Мбайт (5%)
[cybertorrent.ru].t36346.torrent 
Торрент: Зарегистрирован [ 2018-03-03 17:45 ] · 1ADECFCC1A736C46D342AE38137ACB11A3021921

Скачать .torrent

Скачать

12 KB

Статус: проверено
Скачан: 0 раз
Размер: 2,31 GB
Профиль [ЛС]
Показать сообщения:    

Текущее время: 19-Сен 16:22

Часовой пояс: UTC ± 0



Вы не можете начинать темы
Вы не можете отвечать на сообщения
Вы не можете редактировать свои сообщения
Вы не можете удалять свои сообщения
Вы не можете голосовать в опросах
Вы не можете прикреплять файлы к сообщениям
Вы можете скачивать файлы
Torrents24.ru открытый BitTorrent Torrents24.pl открытый BitTorrent CyberTorrent.ru открытый BitTorrent BtList.ru рейтинг BitTorrent трекеров Яндекс.Метрика