Статистика раздачи
Размер:  4,42 GB   |    Зарегистрирован:  4 месяца 14 дней   |    Скачан:  0 раз

Полного источника не было: Никогда

 
   
 
 

soda ®

Пол:
Не указан
Стаж:
5 месяцев 2 дня
Сообщений:
205

Одинокая женщина желает познакомиться
Жанр: мелодрама
Год выпуска: 1986
Продолжительность: 01:24:35
Режиссёр: Вячеслав Криштофович
В ролях: Ирина Купченко, Александр Збруев, Елена Соловей, Марианна Вертинская, Маргарита Криницына, Алиция Омельчук, Валерий Шептекита, Яна Атаманова
Описание: Когда она обнаружила, что ждать принца уже поздно, 43-летняя Клавдия, решила перебороть судьбу, расклеив под покровом ночи по городу брачные объявления: "Одинокая женщина желает познакомиться". И вот на ее призыв откликнулся "он" - бывший циркач и некогда талантливый человек, а ныне алкоголик и инвалид.
Доп. информация: запись потока *.ts со спутника EUTELSAT 36A/B, 36° в.д., ремукс в *.mkv программой VideoReDo.
Качество видео: DVB
Формат видео: MKV
Видео: Advanced Video Codec, 1920x1080 (16:9), 25,000 кадров/сек, 6 694 Кбит/сек
Аудио 1: MPEG Audio, 48,0 КГц, 192 Кбит/сек, 2 канала
Аудио 2: AC-3, 48,0 КГц, 448 Кбит/сек, 6 каналов

MediaInfo

General
Unique ID : 193080968642836434502654976776739911164 (0x91420ABB45C95ED65A6F9C57BF0E75FC)
Complete name : D:\Torrent\ОДИНОКАЯ ЖЕНЩИНА ЖЕЛАНТ ПОЗНАКОМИТЬСЯ (Наше Любимое HD).mkv
Format : Matroska
Format version : Version 2
File size : 4.42 GiB
Duration : 1 h 24 min
Overall bit rate : 7 483 kb/s
Writing application : Lavf52.64.2
Writing library : Lavf52.64.2
Video
ID : 1
Format : AVC
Format/Info : Advanced Video Codec
Format profile : Main@L4
Format settings : CABAC / 4 Ref Frames
Format settings, CABAC : Yes
Format settings, RefFrames : 4 frames
Format settings, GOP : M=1, N=32
Codec ID : V_MPEG4/ISO/AVC
Duration : 1 h 24 min
Bit rate : 6 694 kb/s
Width : 1 920 pixels
Height : 1 080 pixels
Display aspect ratio : 16:9
Frame rate mode : Constant
Frame rate : 25.000 FPS
Color space : YUV
Chroma subsampling : 4:2:0
Bit depth : 8 bits
Scan type : Interlaced
Scan type, store method : Separated fields
Scan order : Top Field First
Bits/(Pixel*Frame) : 0.129
Stream size : 3.95 GiB (89%)
Default : Yes
Forced : No
Color range : Limited
Color primaries : BT.709
Transfer characteristics : BT.709
Matrix coefficients : BT.709
Audio #1
ID : 2
Format : MPEG Audio
Format version : Version 1
Format profile : Layer 2
Codec ID : A_MPEG/L2
Codec ID/Hint : MP2
Duration : 1 h 24 min
Bit rate mode : Constant
Bit rate : 192 kb/s
Channel(s) : 2 channels
Sampling rate : 48.0 kHz
Compression mode : Lossy
Stream size : 116 MiB (3%)
Language : Russian
Default : No
Forced : No
Audio #2
ID : 3
Format : AC-3
Format/Info : Audio Coding 3
Format settings, Endianness : Big
Codec ID : A_AC3
Duration : 1 h 24 min
Bit rate mode : Constant
Bit rate : 448 kb/s
Channel(s) : 6 channels
Channel positions : Front: L C R, Side: L R, LFE
Sampling rate : 48.0 kHz
Frame rate : 31.250 FPS (1536 SPF)
Bit depth : 16 bits
Compression mode : Lossy
Stream size : 271 MiB (6%)
Language : Russian
Service kind : Complete Main
Default : Yes
Forced : No
[cybertorrent.ru].t36544.torrent 
Торрент: Зарегистрирован [ 2018-03-03 19:08 ] · 0116A30020D78AD143950685C13B397CCB329F2F

Скачать .torrent

Скачать

23 KB

Статус: проверено
Скачан: 0 раз
Размер: 4,42 GB
Профиль [ЛС]
Показать сообщения:    

Текущее время: 18-Июл 04:57

Часовой пояс: UTC ± 0



Вы не можете начинать темы
Вы не можете отвечать на сообщения
Вы не можете редактировать свои сообщения
Вы не можете удалять свои сообщения
Вы не можете голосовать в опросах
Вы не можете прикреплять файлы к сообщениям
Вы можете скачивать файлы