BitTorrent клиенты



Строго на запад / Slow West (Джон Маклин / John Maclean) [2015, Великобритания, Новая Зеландия, Вестерн, драма, триллер, DVD9] R5 Dub + Sub Rus + Original Eng

Ответить на тему
Статистика раздачи
Размер:  5,2 GB   |    Зарегистрирован:  9 месяцев 13 дней   |    Скачан:  0 раз

Полного источника не было: Никогда

 
   
 
 
Автор Сообщение

Alino4ka ®

Пол: Не указан

Стаж: 1 год

Сообщений: 842

Создавать темы 03-Май-2018 15:37

[Цитировать]

Строго на запад / Slow West«Wanted dead or dead»- Страна: Великобритания, Новая Зеландия
Студии: Film4, British Film Institute, New Zealand Film Commission
Жанр: Вестерн, драма, триллер
Год выпуска: 2015-Дата мировой премьеры: 24 января 2015
Дата российской премьеры: 21 января 2016, «Кинологистика»
Дата выхода DVD релиза: 29 февраля 2016, «НД Плэй»-Продолжительность: 01:20:00
Перевод: Профессиональный (дублированный) [Лицензия]
Субтитры: Русские
Оригинальная аудиодорожка: Английская-Режиссер: Джон Маклин / John Maclean
Продюсеры: Эйн Каннинг, Рэйчел Гарднер, Конор МакКохан
Актеры: Коди Смит-МакФи, Карен Писториус, Аорере Паки, Джеффри Томас, Хейден Фрост, Киран Чернок, Майкл Фассбендер, Джозеф Пасси, Сэм Манзанза, Таванда Маниймо-Описание:
История авантюриста по имени Сайлас, сопровождающего в опасном путешествии вдоль всей американской границы 16-летнего паренька по имени Джей Кавендиш. Джей разыскивает девушку, в которую влюблен.
Они пересеклись случайно, одинокий волк, отбившийся от волчьей стаи и заяц, оказавшийся в волчьем логове. Он мог дать ему умереть, мог убить, но не вцепился в горло, а пошёл с ним по следу, помогая найти затаившуюся где-то любовь, провожая через поля ненависти и леса страха, твёрдо, не решив, что делать дальше с ним и с собой.
Доп. материалы: Анонсы- -Качество: DVD9 R5
Формат: DVD-Video
Видео: MPEG-2, 720x576@1024x576 (PAL 16:9), ~7300 Кбит/сек
Аудио 1: AC3 5.1, 448 Кбит/сек [Русский - дублированный]
Аудио 2: AC3 5.1, 448 Кбит/сек [Английский - оригинал]

DVDInfo

Title: Slow West (2015) DVD9 R5
Size: 5.20 Gb ( 5 452 150 KBytes ) - DVD-9
Enabled regions: 1, 2, 3, 4, 5, 6, 7, 8
VTS_01 :
Play Length: 00:00:15
Video: PAL 4:3 (720x576) VBR
Audio:
Not specified (Dolby AC3, 2 ch)
VTS_02 :
Play Length: 00:00:08
Video: PAL 16:9 (720x576) VBR, Auto Pan&Scan
Audio:
Not specified (Dolby AC3, 2 ch)
VTS_03 :
Play Length: 00:01:09
Video: PAL 16:9 (720x576) VBR, Auto Pan&Scan
Audio:
Russian (Dolby AC3, 2 ch)
English (Dolby AC3, 2 ch)
Subtitles:
Russian
VTS_04 :
Play Length: 00:01:14
Video: PAL 16:9 (720x576) VBR, Auto Pan&Scan
Audio:
Russian (Dolby AC3, 2 ch)
English (Dolby AC3, 2 ch)
Subtitles:
Russian
VTS_05 :
Play Length: 00:02:32
Video: PAL 16:9 (720x576) VBR, Auto Pan&Scan
Audio:
Russian (Dolby AC3, 2 ch)
English (Dolby AC3, 2 ch)
Subtitles:
Russian
VTS_06 :
Play Length: 00:02:27
Video: PAL 16:9 (720x576) VBR, Auto Pan&Scan
Audio:
Russian (Dolby AC3, 2 ch)
English (Dolby AC3, 2 ch)
Subtitles:
Russian
VTS_07 :
Play Length: 00:02:09
Video: PAL 16:9 (720x576) VBR, Auto Pan&Scan
Audio:
Russian (Dolby AC3, 2 ch)
English (Dolby AC3, 2 ch)
Subtitles:
Russian
VTS_08 :
Play Length: 00:02:15
Video: PAL 16:9 (720x576) VBR, Auto Pan&Scan
Audio:
Russian (Dolby AC3, 2 ch)
English (Dolby AC3, 2 ch)
Subtitles:
Russian
VTS_09 :
Play Length: 00:02:24
Video: PAL 16:9 (720x576) VBR, Auto Pan&Scan
Audio:
Russian (Dolby AC3, 2 ch)
English (Dolby AC3, 2 ch)
Subtitles:
Russian
VTS_10 :
Play Length: 01:20:00
Video: PAL 16:9 (720x576) VBR, Auto Pan&Scan
Audio:
Russian (Dolby AC3, 6 ch)
English (Dolby AC3, 6 ch)
Subtitles:
Russian
VTS_11 :
Play Length: 00:00:01
Video: PAL 16:9 (720x576) VBR, Auto Pan&Scan
Audio:
Russian (Dolby AC3, 2 ch)
English (Dolby AC3, 2 ch)
Subtitles:
Russian
Menu Video:
PAL 16:9 (720x576) VBR
Auto Letterboxed
Menu Audio:
Not specified (LinearPCM, 2 ch)
Menu Subtitles:
Not specified
Menu English Language Unit :
Root Menu
Chapter (PTT) Menu

MediaInfo

Общее
Полное имя : G:\Torrents\Slow West (2015) DVD9 R5\VIDEO_TS\VTS_10_4.VOB
Формат : MPEG-PS
Размер файла : 1000 Мбайт
Продолжительность : 16 м. 39 с.
Режим общего битрейта : Переменный
Общий поток : 8397 Кбит/сек
Видео
Идентификатор : 224 (0xE0)
Формат : MPEG Video
Версия формата : Version 2
Профиль формата : Main@Main
Настройки формата : BVOP
Параметр BVOP формата : Да
Параметр матрицы формата : По умолчанию
Параметр GOP формата : M=3, N=12
Продолжительность : 16 м. 38 с.
Вид битрейта : Переменный
Битрейт : 7334 Кбит/сек
Максимальный битрейт : 8500 Кбит/сек
Ширина : 720 пикселей
Высота : 576 пикселей
Соотношение сторон : 16:9
Частота кадров : 25,000 кадров/сек
Стандарт вещания : PAL
Цветовое пространство : YUV
Субдискретизация насыщенности : 4:2:0
Битовая глубина : 8 бит
Тип развёртки : Прогрессивная
Метод сжатия : С потерями
Бит/(Пиксели*Кадры) : 0.707
Временной код первого кадра : 00:54:00:19
Оригинал временного кода : Group of pictures header
GOP, открыто/закрыто : Открыто
Размер потока : 873 Мбайт (87%)
Аудио #1
Идентификатор : 189 (0xBD)-128 (0x80)
Формат : AC-3
Формат/Информация : Audio Coding 3
Параметр Endianness формата : Big
Режим смешивания : DVD-Video
Продолжительность : 16 м. 39 с.
Вид битрейта : Постоянный
Битрейт : 448 Кбит/сек
Каналы : 6 каналов
Расположение каналов : Front: L C R, Side: L R, LFE
Частота : 48,0 КГц
Частота кадров : 31,250 кадров/сек (1536 SPF)
Битовая глубина : 16 бит
Метод сжатия : С потерями
Задержка видео : -744 мс.
Размер потока : 53,4 Мбайт (5%)
ServiceKind/String : Complete Main
Аудио #2
Идентификатор : 189 (0xBD)-129 (0x81)
Формат : AC-3
Формат/Информация : Audio Coding 3
Параметр Endianness формата : Big
Режим смешивания : DVD-Video
Продолжительность : 16 м. 39 с.
Вид битрейта : Постоянный
Битрейт : 448 Кбит/сек
Каналы : 6 каналов
Расположение каналов : Front: L C R, Side: L R, LFE
Частота : 48,0 КГц
Частота кадров : 31,250 кадров/сек (1536 SPF)
Битовая глубина : 16 бит
Метод сжатия : С потерями
Задержка видео : -744 мс.
Размер потока : 53,4 Мбайт (5%)
ServiceKind/String : Complete Main
Текст #1
Идентификатор : 189 (0xBD)-32 (0x20)
Формат : RLE
Формат/Информация : Run-length encoding
Режим смешивания : DVD-Video
Задержка видео : 1 с. 400 мс.
Текст #2
Идентификатор : 189 (0xBD)-33 (0x21)
Формат : RLE
Формат/Информация : Run-length encoding
Режим смешивания : DVD-Video
Задержка видео : 1 с. 400 мс.
Меню
-

Скриншоты меню

Скриншоты фильма

-За предоставленный DVD спасибо большое AKIM2B-Раздаю с 10:00 до 23:00 до 10 скачавших.
[cybertorrent.ru].t38154.torrent 
Торрент: Зарегистрирован [ 2018-05-03 15:40 ] · 90D9D3F8776139B0F395649C238268A07AD8EAE6

Скачать .torrent

Скачать

29 KB

Статус: проверено
Скачан: 0 раз
Размер: 5,2 GB
terms.php
[Профиль] [ЛС]
Показать сообщения:    
Ответить на тему

Текущее время: 17-Фев 08:32

Часовой пояс: UTC + 3



Вы не можете начинать темы
Вы не можете отвечать на сообщения
Вы не можете редактировать свои сообщения
Вы не можете удалять свои сообщения
Вы не можете голосовать в опросах
Вы не можете прикреплять файлы к сообщениям
Вы можете скачивать файлы