BitTorrent клиенты



Город страха / Fear City (Абель Феррара / Abel Ferrara) [1984, США, триллер, криминал, детектив, BDRip] AVO (Владимир Сонькин)

Ответить на тему
Статистика раздачи
Размер:  1,46 GB   |    Зарегистрирован:  9 месяцев 11 дней   |    Скачан:  0 раз

Полного источника не было: Никогда

 
   
 
 
Автор Сообщение

ingiz ®

Пол: Не указан

Стаж: 1 год

Сообщений: 1731

Создавать темы 05-Май-2018 16:08

[Цитировать]

Город страха / Fear City
Страна: США
Жанр: триллер, криминал, детектив
Год выпуска: 1984
Продолжительность: 01:34:53
Перевод: Авторский (одноголосый закадровый) Владимир Сонькин
Субтитры: нет
Режиссер: Абель Феррара / Abel Ferrara
В ролях: Том Беренджер, Билли Ди Уильямс, Джек Скалия, Мелани Гриффит, Россано Брацци, Рей Дон Чонг, Джо Сантос, Майкл В. Гаццо, Жан Мюррэй
Описание: Нью-Йорк, Манхетен. Функционирует круглосуточно. Мир стрип-баров, денег и порочного обаяния. Здесь удовольствие является бизнесом и ночь принадлежит девушкам из стриптиза — шоугелз. Стриптизерок поджидает в засаде сексуальный маньяк, жестоко убивающий самых горячих и привлекательных. Одному из сутенеров приходится самому выйти на охоту за убийцей, так как усилий полиции явно недостаточно, тем более, что на стороне преступника оказывается один из полицейских....
Сэмпл: http://multi-up.com/1197073
Качество видео: BDRip (Исходник BDRemux 1080p)
Формат видео: AVI
Видео: XviD 73, 704x432, (16:10), 23,976 fps, 2003 Кбит/с, 8 бит, 0.28 bit/pixel
Аудио: Русский (АС3, 2 ch (Front: L R), 48,0 KHz, 192 Kbps)

MediaInfo

Общее
Полное имя : H:\Фильмы на трекер\Город страха (триллер, криминал, детектив 1984 год).avi
Формат : AVI
Формат/Информация : Audio Video Interleave
Размер файла : 1,46 Гбайт
Продолжительность : 1 ч. 34 м.
Общий поток : 2204 Кбит/сек
Программа кодирования : VirtualDubMod 1.5.10.2 (build 2540/release)
Библиотека кодирования : VirtualDubMod build 2540/release
Видео
Идентификатор : 0
Формат : MPEG-4 Visual
Профиль формата : Advanced Simple@L5
Параметр BVOP формата : 2
Параметр QPel формата : Нет
Параметр GMC формата : Без точки перехода
Параметр матрицы формата : Выборочная
Идентификатор кодека : XVID
Идентификатор кодека/Подсказка : XviD
Продолжительность : 1 ч. 34 м.
Битрейт : 2003 Кбит/сек
Ширина : 704 пикселя
Высота : 432 пикселя
Соотношение сторон : 16:10
Частота кадров : 23,976 (23976/1000) кадра/сек
Цветовое пространство : YUV
Субдискретизация насыщенности : 4:2:0
Битовая глубина : 8 бит
Тип развёртки : Прогрессивная
Метод сжатия : С потерями
Бит/(Пиксели*Кадры) : 0.275
Размер потока : 1,33 Гбайт (91%)
Библиотека кодирования : XviD 73
Аудио
Идентификатор : 1
Формат : AC-3
Формат/Информация : Audio Coding 3
Расширение режима : CM (complete main)
Параметр Endianness формата : Big
Идентификатор кодека : 2000
Продолжительность : 1 ч. 34 м.
Вид битрейта : Постоянный
Битрейт : 192 Кбит/сек
Каналы : 2 канала
Расположение каналов : Front: L R
Частота : 48,0 КГц
Частота кадров : 31,250 кадров/сек (1536 spf)
Метод сжатия : С потерями
Размер потока : 130 Мбайт (9%)
Выравнивание : Разделение по промежуткам
Продолжительность промежутка : 42 мс. (1,00 видеокадр)
Время предзагрузки промежутка : 500 мс.

Скриншот c названием фильма

Скриншоты

[cybertorrent.ru].t38359.torrent 
Торрент: Зарегистрирован [ 2018-05-05 16:10 ] · 79164E826E9B99666723D9DDAF91965D3DBFDE2D

Скачать .torrent

Скачать

15 KB

Статус: проверено
Скачан: 0 раз
Размер: 1,46 GB
terms.php
[Профиль] [ЛС]
Показать сообщения:    
Ответить на тему

Текущее время: 17-Фев 08:48

Часовой пояс: UTC + 3



Вы не можете начинать темы
Вы не можете отвечать на сообщения
Вы не можете редактировать свои сообщения
Вы не можете удалять свои сообщения
Вы не можете голосовать в опросах
Вы не можете прикреплять файлы к сообщениям
Вы можете скачивать файлы