BitTorrent клиенты



Динамит / Тактическая Команда по Нейтрализации / T.N.T. (Роберт Рэдлер / Robert Radler) [1997, США, боевик, VHSRip] AVO (Сербин / Viking Video)

Ответить на тему
Статистика раздачи
Размер:  1,37 GB   |    Зарегистрирован:  9 месяцев 17 дней   |    Скачан:  0 раз

Полного источника не было: Никогда

 
   
 
 
Автор Сообщение

StartSoft ®

Пол: Не указан

Стаж: 1 год

Сообщений: 1587

Создавать темы 06-Май-2018 15:44

[Цитировать]

Динамит / Тактическая Команда по Нейтрализации / T.N.T.
Страна: США
Жанр: боевик
Год выпуска: 1997
Продолжительность: 01:26:40
Перевод: Авторский (одноголосый закадровый) Сербин / Viking Video
Субтитры: нет
Режиссер: Роберт Рэдлер / Robert Radler
В ролях: Оливье Грюнер (Alex), Рэнди Трэвис (Jim), Ребекка Стааб (Jamie Wheeler), Джадсон Миллс (Val), Сирил O'Райлли, Рональд Лоуренс, Хуан А. Риохас, Бри Блэр, Эрик Робертс (Russo), Трэйси Адэлл (Barbara)
Описание: Нэт является членом секретной группы командос, выполняющих по поручению правительства слишком рискованные или щекотливые для обычных отрядов задания. После нескольких миссий для Нэта становится очевидным, что руководство команды каким-то образом связано с наркодельцами, и, уничтожая одних боссов, бойцы играют на ругу другим. Нэт решает уйти со службы. В связи с этим у него возникает одна проблема: первое правило отряда гласит «однажды вошел — останешься навсегда». Поэтому в домик на берегу горного озера за ним приходят дюжина незваных гостей. Таких же профессионалов, как и он сам…
Доп. информация: Оцифровка лицензионной VHS (личный архив) и получение VHSRip alenavova
Эксклюзив для rutracker.org. При размещении данного релиза на других сайтах ссылка на автора alenavova обязательна.
Релиз
Сэмпл: https://yadi.sk/i/kHOSSRZ93NMmQH
Качество видео: VHSRip
Формат видео: AVI
Видео: 704x528 (1.33:1), 25 fps, XviD build 73 ~2056 kbps avg, 0.22 bit/pixel
Аудио: 48 kHz, AC3 Dolby Digital, 2/0 (L,R) ch, ~192 kbps

MediaInfo

Динамит - T.N.T. [by alenavova].avi
Format : AVI
Format/Info : Audio Video Interleave
File size : 1.37 GiB
Duration : 1 h 26 min
Overall bit rate : 2 258 kb/s
Movie name : Динамит - T.N.T. [by alenavova]
Director : by alenavova
Writing application : VirtualDubMod 1.5.10.3 | www.virtualdub-fr.org || (build 2550/release)
Copyright : Edich2
Comment : RuTracker.org
Video
ID : 0
Format : MPEG-4 Visual
Format profile : Advanced Simple@L5
Format settings, BVOP : 2
Format settings, QPel : No
Format settings, GMC : No warppoints
Format settings, Matrix : Custom
Codec ID : XVID
Codec ID/Hint : XviD
Duration : 1 h 26 min
Bit rate : 2 057 kb/s
Width : 704 pixels
Height : 528 pixels
Display aspect ratio : 4:3
Frame rate : 25.000 FPS
Color space : YUV
Chroma subsampling : 4:2:0
Bit depth : 8 bits
Scan type : Progressive
Compression mode : Lossy
Bits/(Pixel*Frame) : 0.221
Stream size : 1.25 GiB (91%)
Writing library : XviD 73
Audio
ID : 1
Format : AC-3
Format/Info : Audio Coding 3
Format settings, Endianness : Big
Codec ID : 2000
Duration : 1 h 26 min
Bit rate mode : Constant
Bit rate : 192 kb/s
Channel(s) : 2 channels
Channel positions : Front: L R
Sampling rate : 48.0 kHz
Frame rate : 31.250 FPS (1536 spf)
Bit depth : 16 bits
Compression mode : Lossy
Stream size : 119 MiB (9%)
Alignment : Split accross interleaves
Interleave, duration : 40 ms (1.00 video frame)
Interleave, preload duratio : 500 ms
Service kind : Complete Main

Скриншоты


[cybertorrent.ru].t38467.torrent 
Торрент: Зарегистрирован [ 2018-05-06 15:45 ] · 44E9B63AF0904D72220C95367EA5C10160477AC5

Скачать .torrent

Скачать

14 KB

Статус: проверено
Скачан: 0 раз
Размер: 1,37 GB
terms.php
[Профиль] [ЛС]
Показать сообщения:    
Ответить на тему

Текущее время: 23-Фев 16:11

Часовой пояс: UTC + 3



Вы не можете начинать темы
Вы не можете отвечать на сообщения
Вы не можете редактировать свои сообщения
Вы не можете удалять свои сообщения
Вы не можете голосовать в опросах
Вы не можете прикреплять файлы к сообщениям
Вы можете скачивать файлы