BitTorrent клиенты



Элементарно / Elementary / Сезон: 5 / Серии: 1-24 из 24 (Джон Полсон, Сет Манн, Эндрю Бернштейн) [2016, США, драма, криминал, детектив, WEBRip] MVO (LostFilm) + Original + Eng Subs

Ответить на тему
Статистика раздачи
Размер:  19,7 GB   |    Зарегистрирован:  8 месяцев 25 дней   |    Скачан:  0 раз

Полного источника не было: Никогда

 
   
 
 
Автор Сообщение

Domino ®

Пол: Не указан

Стаж: 1 год

Сообщений: 717

Создавать темы 29-Май-2018 15:33

[Цитировать]

Элементарно / Elementary Год выпуска: 2016
Страна: США
Жанр: драма, криминал, детектив
Продолжительность: ~00:43:00
Перевод: Профессиональный (многоголосый закадровый) LostFilm
Режиссёр: Джон Полсон, Сет Манн, Эндрю Бернштейн
В ролях: Джонни Ли Миллер, Люси Лью, Эйдан Куинн, Джон Майкл Хилл, Рис Иванс, Натали Дормер, Ато Эссонда, Джордан Гелбер,Шон Пертуи, Линда Эмонд
Описание: Британский сыщик Шерлок Холмс — бывший наркоман, который был отправлен в Нью-Йорк на лечение вреабилитационный центр, а по завершении лечения остался в Бруклине как консультант Нью-Йоркской полиции. В расследованиях ему помогает егокомпаньон-наблюдатель доктор Джоан Ватсон, нанятая его отцом.

Работа со звуком: marchelush
Автор рипа: Бёдвар

Качество: WEBRip
Формат: AVI
Видео: 720x400 (1.80:1), 23.976 fps, XviD build 67 ~1999 kbps avg, 0.29 bit/pixel
Аудио 1: 48 kHz, AC3 Dolby Digital, 3/2 (L,C,R,l,r) + LFE ch, ~384 kbps
Аудио 2: 48 kHz, AC3 Dolby Digital, 3/2 (L,C,R,l,r) + LFE ch, ~384 kbps
Субтитры: Английские
Реклама: Реклама отсутствует

Список серий

01. Двойное помешательство / Folie a Deux
02. Стоимостью в несколько городов / Worth Several Cities
03. Помоги и поймай ее / Render, and Then Seize Her
04. Конец света или когда упадут небеса / Henny Penny the Sky Is Falling
05. Поймать охотника за охотниками / To Catch a Predator Predator
06. Дурное известие / Ill Tidings
07. Пиф-паф, убит парашютист / Bang Bang Shoot Chute
08. Из чего сделаны сосиски / How the Sausage Is Made
09. Страдания идут на пользу / It Serves You Right to Suffer
10. Прими свой яд / Pick Your Poison
11. Чувствуй себя как дома / Be My Guest
12. Мёртвый клоун и экологическая проблема / Crowned Clown, Downtown Brown
13. Под прицелом / Over a Barrel
14. Убит в реале / Rekt in Real Life
15. Не та сторона дороги / Wrong Side of the Road
16. Преданность / Fidelity
17. Баллада о леди Фрэнсис / The Ballad of Lady Frances
18. Легенда мертвеца / Dead Man's Tale
19. Невыносимая жара / High Heat
20. Искусство ловкости и обмана / The Art of Sleights and Deception
21. Потеряешь контроль - неудачно приземлишься / Fly Into a Rage, Make a Bad Landing
22. Движущиеся цели / Moving Targets
23. Шифр / Scrambled
24. Больно мне, больно тебе / Hurt Me, Hurt You

MediaInfo

Format : AVI
Format/Info : Audio Video Interleave
File size : 853 MiB
Duration : 42mn 55s
Overall bit rate : 2 777 Kbps
Writing application : VirtualDubMod 1.5.10.3 (build 2550/release)
Writing library : VirtualDubMod build 2550/release
Video
ID : 0
Format : MPEG-4 Visual
Format profile : Simple@L5
Format settings, BVOP : 1
Format settings, QPel : No
Format settings, GMC : No warppoints
Format settings, Matrix : Default (MPEG)
Codec ID : XVID
Codec ID/Hint : XviD
Duration : 42mn 55s
Bit rate : 1 999 Kbps
Width : 720 pixels
Height : 400 pixels
Display aspect ratio : 16:9
Frame rate : 23.976 (24000/1001) fps
Color space : YUV
Chroma subsampling : 4:2:0
Bit depth : 8 bits
Scan type : Progressive
Compression mode : Lossy
Bits/(Pixel*Frame) : 0.290
Stream size : 614 MiB (72%)
Writing library : XviD 67
Audio #1
ID : 1
Format : AC-3
Format/Info : Audio Coding 3
Mode extension : CM (complete main)
Format settings, Endianness : Big
Codec ID : 2000
Duration : 42mn 55s
Source duration : 42mn 55s
Bit rate mode : Constant
Bit rate : 384 Kbps
Channel(s) : 6 channels
Channel positions : Front: L C R, Side: L R, LFE
Sampling rate : 48.0 KHz
Frame rate : 31.250 fps (1536 spf)
Bit depth : 16 bits
Compression mode : Lossy
Stream size : 118 MiB (14%)
Alignment : Split accross interleaves
Interleave, duration : 80 ms (1.92 video frames)
Interleave, preload duratio : 560 ms
Audio #2
ID : 2
Format : AC-3
Format/Info : Audio Coding 3
Mode extension : CM (complete main)
Format settings, Endianness : Big
Codec ID : 2000
Duration : 42mn 55s
Source duration : 42mn 55s
Bit rate mode : Constant
Bit rate : 384 Kbps
Channel(s) : 6 channels
Channel positions : Front: L C R, Side: L R, LFE
Sampling rate : 48.0 KHz
Frame rate : 31.250 fps (1536 spf)
Bit depth : 16 bits
Compression mode : Lossy
Stream size : 118 MiB (14%)
Alignment : Split accross interleaves
Interleave, duration : 80 ms (1.92 video frames)
Interleave, preload duratio : 560 ms

Скриншоты



Предыдущие и альтернативные раздачи
[cybertorrent.ru].t41265.torrent 
Торрент: Зарегистрирован [ 2018-05-29 15:35 ] · 8942F43139AA971543BABE2C99E82E85CDCDEE4B

Скачать .torrent

Скачать

54 KB

Статус: проверено
Скачан: 0 раз
Размер: 19,7 GB
terms.php
[Профиль] [ЛС]
Показать сообщения:    
Ответить на тему

Текущее время: 23-Фев 16:02

Часовой пояс: UTC + 3



Вы не можете начинать темы
Вы не можете отвечать на сообщения
Вы не можете редактировать свои сообщения
Вы не можете удалять свои сообщения
Вы не можете голосовать в опросах
Вы не можете прикреплять файлы к сообщениям
Вы можете скачивать файлы