BitTorrent клиенты



Бойцовая рыбка / Rumble Fish (Фрэнсис Форд Коппола / Francis Ford Coppola) [1983, США, драма, BDRip] AVO (Юрий Живов)

Ответить на тему
Статистика раздачи
Размер:  1,35 GB   |    Зарегистрирован:  8 месяцев 1 день   |    Скачан:  0 раз

Полного источника не было: Никогда

 
   
 
 
Автор Сообщение

ingiz ®

Пол: Не указан

Стаж: 1 год

Сообщений: 1731

Создавать темы 15-Июн-2018 16:13

[Цитировать]

Бойцовая рыбка / Rumble Fish
Страна: США
Жанр: драма
Год выпуска: 1983
Продолжительность: 01:34:00
Перевод: Авторский (одноголосый закадровый) Юрий Живов
Субтитры: нет
Режиссер: Фрэнсис Форд Коппола / Francis Ford Coppola
В ролях: Мэтт Диллон, Микки Рурк, Дайан Лэйн, Деннис Хоппер, Дайана Скаруид, Винсент Спано, Николас Кейдж, Крис Пенн, Лоренс Фишбёрн
Описание: Экранизация новеллы американской писательницы С. Э. Хинтон. История, повествующая о двух братьях, которых давным-давно бросила мать, и они живут с отцом-алкоголиком в провинциальном тихом городке. Старший брат по прозвищу Мотоциклист, завоевавший славу уличного Короля среди молодежи родного города, уезжает из дома на своем мотоцикле в поисках лучшей жизни. Младший, Расти Джеймс, стремится повторить путь брата в преступной среде городка и с нетерпением ждет его возвращения. И однажды Мотоциклист возвращается, но уже совсем другим...

Сэмпл: http://multi-up.com/1201558
Качество видео: BDRip (Исходник Rumble Fish.1983.BD.Remux.Films.Club)
Формат видео: AVI
Видео: XviD 73, 720x384, (1,85:1), 23,976 fps, 1582 Кбит/с, 8 бит, 0.24 bit/pixel
Аудио: Русский (АС3, 6 ch (Front: L C R, Side: L R, LFE), 48,0 KHz, 448 Kbps)

MediaInfo

Общее
Полное имя : H:\Фильмы на трекер\Бойцовая рыбка (драма 1983 год).avi
Формат : AVI
Формат/Информация : Audio Video Interleave
Размер файла : 1,35 Гбайт
Продолжительность : 1 ч. 34 м.
Общий поток : 2039 Кбит/сек
Программа кодирования : VirtualDubMod 1.5.10.2 (build 2540/release)
Библиотека кодирования : VirtualDubMod build 2540/release
Видео
Идентификатор : 0
Формат : MPEG-4 Visual
Профиль формата : Advanced Simple@L5
Параметр BVOP формата : 2
Параметр QPel формата : Нет
Параметр GMC формата : Без точки перехода
Параметр матрицы формата : Выборочная
Идентификатор кодека : XVID
Идентификатор кодека/Подсказка : XviD
Продолжительность : 1 ч. 34 м.
Битрейт : 1582 Кбит/сек
Ширина : 720 пикселей
Высота : 384 пикселя
Соотношение сторон : 1,85:1
Частота кадров : 23,976 (23976/1000) кадра/сек
Цветовое пространство : YUV
Субдискретизация насыщенности : 4:2:0
Битовая глубина : 8 бит
Тип развёртки : Прогрессивная
Метод сжатия : С потерями
Бит/(Пиксели*Кадры) : 0.239
Размер потока : 1,04 Гбайт (78%)
Библиотека кодирования : XviD 73
Аудио
Идентификатор : 1
Формат : AC-3
Формат/Информация : Audio Coding 3
Расширение режима : CM (complete main)
Параметр Endianness формата : Big
Идентификатор кодека : 2000
Продолжительность : 1 ч. 34 м.
Вид битрейта : Постоянный
Битрейт : 448 Кбит/сек
Каналы : 6 каналов
Расположение каналов : Front: L C R, Side: L R, LFE
Частота : 48,0 КГц
Частота кадров : 31,250 кадров/сек (1536 spf)
Метод сжатия : С потерями
Размер потока : 303 Мбайт (22%)
Выравнивание : Разделение по промежуткам
Продолжительность промежутка : 42 мс. (1,00 видеокадр)
Время предзагрузки промежутка : 500 мс.

Скриншот c названием фильма

Скриншоты

[cybertorrent.ru].t43932.torrent 
Торрент: Зарегистрирован [ 2018-06-15 16:15 ] · 60CFDEFE2A436DF8E212185A4D07D70A5BFE1DF2

Скачать .torrent

Скачать

14 KB

Статус: проверено
Скачан: 0 раз
Размер: 1,35 GB
terms.php
[Профиль] [ЛС]
Показать сообщения:    
Ответить на тему

Текущее время: 17-Фев 09:28

Часовой пояс: UTC + 3



Вы не можете начинать темы
Вы не можете отвечать на сообщения
Вы не можете редактировать свои сообщения
Вы не можете удалять свои сообщения
Вы не можете голосовать в опросах
Вы не можете прикреплять файлы к сообщениям
Вы можете скачивать файлы