BitTorrent клиенты



Когда кончилось время / When Time Ran Out (Джеймс Голдстоун / James Goldstone) [1980, США, Приключения, триллер, DVDRip] AVO (Л. Володарский) + Original Eng

Ответить на тему
Статистика раздачи
Размер:  1,45 GB   |    Зарегистрирован:  8 месяцев 7 дней   |    Скачан:  0 раз

Полного источника не было: Никогда

 
   
 
 
Автор Сообщение

ingiz ®

Пол: Не указан

Стаж: 1 год

Сообщений: 1731

Создавать темы 15-Июн-2018 16:13

[Цитировать]

Когда кончилось время / When Time Ran Out
Страна: США
Жанр: Приключения, триллер
Год выпуска: 1980
Продолжительность: 01:44:37
Перевод: Авторский (одноголосый закадровый) Л. Володарский
Субтитры: нет
Оригинальная аудиодорожка: английский
Режиссер: Джеймс Голдстоун / James Goldstone
В ролях: Пол Ньюман
Жаклин Биссет
Уильям Холден
Эдвард Альберт
Ред Баттонс
Барбара Каррера
Валентина Кортезе
Вероника Хамель
Алекс Кэррас
Бёрджесс Мередит
Описание: Боб владеет красивейшим островом в океане. На острове выстроен комфортабельный отель, туристы любят это местечко. Главной достопримечательностью этого райского уголка является древний вулкан, извергавший из себя лаву только два раза за всю историю — в 9 веке и в 1902 году.
Склоны окрестных гор покрыты дивным лесом, а у подножья — божественный океан. Друг и компаньон Боба Хэнк Андерсон нашел на острове месторождение нефти. Боб в восторге — наконец-то, он станет миллионером, но Хэнк не разделяет оптимизма друга. Хэнку не нравится поведение кратера вулкана в последнее время, да и все сейсмические приборы отмечают рост давления.
Хэнк решает самолично спуститься в специальном аппарате в кратер вулкана, чтобы удостовериться так ли это…
Доп. информация: За звуковую дорожку Л. Володарского спасибо Nekontroliruemij_devil
Видеоряд взят здесь http://rutracker.org/forum/viewtopic.php?t=2346530
Сэмпл: https://yadi.sk/i/WfOjA7yS3XrjjC
Качество видео: DVDRip
Формат видео: AVI
Видео: 704x288 (2.44:1), 25 fps, XviD build 50 ~1590 kbps avg
Аудио: AC3 , 48 kHz , 192.00 kbps avg , 2/0 (L,R) ch
Аудио 2: AC3 , 48 kHz , 192.00 kbps avg , 2/0 (L,R) ch

MediaInfo

Complete name Когда кончилось время 1980 (Volodarskiy).avi
Format : AVI
Format/Info : Audio Video Interleave
File size : 1.45 GiB
Duration : 1h 44mn
Overall bit rate : 1 990 Kbps
Writing application : VirtualDubMod 1.5.10.3 | www.virtualdub-fr.org || (build 2550/release)
Writing library : VirtualDubMod build 2550/release
Video
ID : 0
Format : MPEG-4 Visual
Format profile : Advanced Simple@L5
Format settings, BVOP : 1
Format settings, QPel : No
Format settings, GMC : No warppoints
Format settings, Matrix : Custom
Codec ID : XVID
Codec ID/Hint : XviD
Duration : 1h 44mn
Bit rate : 1 591 Kbps
Width : 704 pixels
Height : 288 pixels
Display aspect ratio : 2.40:1
Frame rate : 25.000 fps
Color space : YUV
Chroma subsampling : 4:2:0
Bit depth : 8 bits
Scan type : Progressive
Compression mode : Lossy
Bits/(Pixel*Frame) : 0.314
Stream size : 1.16 GiB (80%)
Writing library : XviD 1.2.1 (UTC 2008-12-04)
Audio #1
ID : 1
Format : AC-3
Format/Info : Audio Coding 3
Mode extension : CM (complete main)
Format settings, Endianness : Big
Codec ID : 2000
Duration : 1h 44mn
Bit rate mode : Constant
Bit rate : 192 Kbps
Channel(s) : 2 channels
Channel positions : Front: L R
Sampling rate : 48.0 KHz
Frame rate : 31.250 fps (1536 spf)
Compression mode : Lossy
Stream size : 144 MiB (10%)
Alignment : Split accross interleaves
Interleave, duration : 40 ms (1.00 video frame)
Interleave, preload duratio : 500 ms
Audio #2
ID : 2
Format : AC-3
Format/Info : Audio Coding 3
Mode extension : CM (complete main)
Format settings, Endianness : Big
Codec ID : 2000
Duration : 1h 44mn
Bit rate mode : Constant
Bit rate : 192 Kbps
Channel(s) : 1 channel
Channel positions : Front: C
Sampling rate : 48.0 KHz
Frame rate : 31.250 fps (1536 spf)
Compression mode : Lossy
Stream size : 144 MiB (10%)
Alignment : Aligned on interleaves
Interleave, duration : 40 ms (1.00 video frame)
Interleave, preload duratio : 512 ms
[cybertorrent.ru].t43933.torrent 
Торрент: Зарегистрирован [ 2018-06-15 16:15 ] · 6BDFB6A2F88134DE3E3E2ACF19F5DC5A65EC3C22

Скачать .torrent

Скачать

15 KB

Статус: проверено
Скачан: 0 раз
Размер: 1,45 GB
terms.php
[Профиль] [ЛС]
Показать сообщения:    
Ответить на тему

Текущее время: 23-Фев 16:11

Часовой пояс: UTC + 3



Вы не можете начинать темы
Вы не можете отвечать на сообщения
Вы не можете редактировать свои сообщения
Вы не можете удалять свои сообщения
Вы не можете голосовать в опросах
Вы не можете прикреплять файлы к сообщениям
Вы можете скачивать файлы