BitTorrent клиенты



Озеро Дракулы / Дом проклятия : Глаз пьющий кровь / Lake of Dracula / Noroi no yakata: Chi o suu me (Ямамото Мичио / Yamamoto Michio) [1971, Япония, триллер, ужасы, DVDRip] VO (Неизвестный)

Ответить на тему
Статистика раздачи
Размер:  1,37 GB   |    Зарегистрирован:  8 месяцев 1 день   |    Скачан:  0 раз

Полного источника не было: Никогда

 
   
 
 
Автор Сообщение

StartSoft ®

Пол: Не указан

Стаж: 1 год

Сообщений: 1587

Создавать темы 15-Июн-2018 16:13

[Цитировать]

Озеро Дракулы / Дом проклятия : Глаз пьющий кровь / Lake of Dracula / Noroi no yakata: Chi o suu me
Страна: Япония
Жанр: триллер, ужасы
Год выпуска: 1971
Продолжительность: 01:21:32
Перевод: Одноголосый закадровый Неизвестный
Субтитры: нет
Режиссер: Ямамото Мичио / Yamamoto Michio
В ролях: Такахаши Чёэй, Санае Эми, Кишида Моури, Фуджита Мидори, Маэда Шимаи, Дзесан Мамото, Кораи Сакагава, Шито Кацуи, Годаи Юке
Описание: Акико Касиваги было пять лет, когда она впервые встретила вампира. Тем памятным вечером девочка гуляла на берегу красивого озера, а её спаниель неожиданно побежал в проход в скале. Бросившись вдогонку, девочка вышла к дому, где и встретила мужчину с кровью на клыках. Что было дальше, Акико не помнила. Жуткий страх или чужая воля заставили девочку навсегда забыть об увиденном. 18 лет спустя молодая художница Акико Касиваги возвращается на берег того самого озера. Женщина знает, что её связывает с этим местом какая-то тайна. Единственное, что Акико помнит из прошлого, — это гигантский жёлтый глаз, застилающий вечернее небо на её мольберте. Но однажды вечером прошлое подкрадывается к молодой художнице, когда к дому её соседа доставляют большой белый гроб....
Сэмпл: http://multi-up.com/1201496
Качество видео: DVDRip (Исходник - DVD5)
Формат видео: AVI
Видео: XviD, 672x272, (2,47:1), 23,976 fps, 2208 Кбит/с, 8 бит
Аудио: Русский (АС3, 2 ch (Front: L R), 48,0 KHz, 192 Kbps)

MediaInfo

Общее
Полное имя : H:\Фильмы на трекер\Озеро Дракулы (триллер, ужасы 1971 год).avi
Формат : AVI
Формат/Информация : Audio Video Interleave
Размер файла : 1,37 Гбайт
Продолжительность : 1 ч. 21 м.
Общий поток : 2409 Кбит/сек
Программа кодирования : VirtualDubMod 1.5.10.2 (build 2540/release)
Библиотека кодирования : VirtualDubMod build 2540/release
Видео
Идентификатор : 0
Формат : MPEG-4 Visual
Профиль формата : Advanced Simple@L5
Параметр BVOP формата : 2
Параметр QPel формата : Нет
Параметр GMC формата : Без точки перехода
Параметр матрицы формата : Выборочная
Идентификатор кодека : XVID
Идентификатор кодека/Подсказка : XviD
Продолжительность : 1 ч. 21 м.
Битрейт : 2208 Кбит/сек
Ширина : 672 пикселя
Высота : 272 пикселя
Соотношение сторон : 2,471
Частота кадров : 23,976 (24000/1001) кадра/сек
Цветовое пространство : YUV
Субдискретизация насыщенности : 4:2:0
Битовая глубина : 8 бит
Тип развёртки : Прогрессивная
Метод сжатия : С потерями
Бит/(Пиксели*Кадры) : 0.504
Размер потока : 1,26 Гбайт (92%)
Библиотека кодирования : XviD 73
Аудио
Идентификатор : 1
Формат : AC-3
Формат/Информация : Audio Coding 3
Расширение режима : CM (complete main)
Параметр Endianness формата : Big
Идентификатор кодека : 2000
Продолжительность : 1 ч. 21 м.
Вид битрейта : Постоянный
Битрейт : 192 Кбит/сек
Каналы : 2 канала
Расположение каналов : Front: L R
Частота : 48,0 КГц
Частота кадров : 31,250 кадров/сек (1536 spf)
Метод сжатия : С потерями
Размер потока : 112 Мбайт (8%)
Выравнивание : Разделение по промежуткам
Продолжительность промежутка : 42 мс. (1,00 видеокадр)
Время предзагрузки промежутка : 500 мс.

Скриншот c названием фильма

Скриншоты

[cybertorrent.ru].t43934.torrent 
Торрент: Зарегистрирован [ 2018-06-15 16:15 ] · 13FD1B178294019A8327F40C7FE323CF5BF94F50

Скачать .torrent

Скачать

14 KB

Статус: проверено
Скачан: 0 раз
Размер: 1,37 GB
terms.php
[Профиль] [ЛС]
Показать сообщения:    
Ответить на тему

Текущее время: 17-Фев 08:36

Часовой пояс: UTC + 3



Вы не можете начинать темы
Вы не можете отвечать на сообщения
Вы не можете редактировать свои сообщения
Вы не можете удалять свои сообщения
Вы не можете голосовать в опросах
Вы не можете прикреплять файлы к сообщениям
Вы можете скачивать файлы