Статистика раздачи
Размер:  1,45 GB   |    Зарегистрирован:  3 месяца 23 дня   |    Скачан:  0 раз

Полного источника не было: Никогда

 
   
 
 

soda ®

Пол:
Не указан
Стаж:
5 месяцев 2 дня
Сообщений:
205

Крылья- Жанр: драма
Год выпуска: 1966
Продолжительность: 01:21:13-Режиссёр: Лариса Шепитько-В ролях:
Майя Булгакова, Жанна Болотова, Пантелеймон Крымов, Леонид Дьячков, Сергей Никоненко, Николай Граббе, Римма Маркова, Аркадий Трусов, Ольга Гобзева, Евгений Евстигнеев
Описание:
Давно окончилась война, но для героини фильма, бывшей летчицы, только те годы и были наполнены подлинным смыслом. Она глубоко переживает разлад с действительностью, отсутствие контакта с дочерью. Ей никак не удается приспособиться к этой мирной, обыденной жизни, в ней не гаснет пронзительное желание летать.-Исходник | Сэмпл | Кинопоиск-Качество видео: DVDRip-AVC, спасибо Slava47 за исходник.
Формат видео: MKV
Видео: x264 (High@L4.1); 718@765x556 25.000 fps; Display aspect ratio: 1.376:1; 2366 Kbps
Аудио: Оригинал AC-3; 16 bits 48 Khz; 2.0ch 192 Kbps; CBR.

MediaInfo

x264 log

avs [info]: 718x556p 16:15 @ 25/1 fps (cfr)
x264 [info]: using SAR=16/15
x264 [info]: using cpu capabilities: MMX2 SSE2Fast SSSE3 SSE4.2
x264 [info]: profile High, level 4.1
x264 [info]: frame I:573 Avg QP:19.06 size: 45756
x264 [info]: frame P:25037 Avg QP:21.52 size: 23262
x264 [info]: frame B:96222 Avg QP:23.97 size: 8652
x264 [info]: consecutive B-frames: 1.2% 2.8% 7.5% 14.2% 14.6% 45.3% 7.5% 3.4% 1.9% 0.8% 0.5% 0.2%
x264 [info]: mb I I16..4: 2.7% 87.3% 10.0%
x264 [info]: mb P I16..4: 0.3% 15.3% 1.0% P16..4: 32.4% 37.2% 12.1% 1.1% 0.1% skip: 0.5%
x264 [info]: mb B I16..4: 0.0% 1.4% 0.1% B16..8: 37.3% 21.1% 3.3% direct:12.3% skip:24.4% L0:40.4% L1:36.6% BI:23.0%
x264 [info]: 8x8 transform intra:91.5% inter:65.7%
x264 [info]: direct mvs spatial:99.4% temporal:0.6%
x264 [info]: coded y,uvDC,uvAC intra: 96.2% 0.0% 0.0% inter: 43.2% 0.0% 0.0%
x264 [info]: i16 v,h,dc,p: 18% 11% 2% 69%
x264 [info]: i8 v,h,dc,ddl,ddr,vr,hd,vl,hu: 11% 7% 6% 10% 15% 14% 13% 13% 12%
x264 [info]: i4 v,h,dc,ddl,ddr,vr,hd,vl,hu: 14% 6% 3% 8% 16% 17% 14% 12% 11%
x264 [info]: i8c dc,h,v,p: 88% 12% 0% 0%
x264 [info]: Weighted P-Frames: Y:28.6% UV:0.0%
x264 [info]: ref P L0: 36.7% 14.4% 14.1% 7.1% 5.6% 4.4% 3.7% 2.2% 2.0% 1.8% 1.7% 1.5% 1.4% 1.3% 1.3% 0.9%
x264 [info]: ref B L0: 74.3% 10.4% 4.4% 2.4% 1.8% 1.5% 1.2% 0.8% 0.6% 0.6% 0.5% 0.5% 0.5% 0.3% 0.1%
x264 [info]: ref B L1: 95.8% 4.2%
x264 [info]: kb/s:2365.80
-General
Unique ID : 247809871074886773416979618262741980785 (0xBA6E71F3805BA7E7858DDB17E7D89671)
Complete name : Крылья.1966.mkv
Format : Matroska
Format version : Version 2
File size : 1.45 GiB
Duration : 1 h 21 min
Overall bit rate : 2 560 kb/s
Encoded date : UTC 2018-03-22 14:41:44
Writing application : mkvmerge v7.8.0 ('River Man') 32bit built on Mar 27 2015 16:18:02
Writing library : libebml v1.3.1 + libmatroska v1.4.2
Video
ID : 1
Format : AVC
Format/Info : Advanced Video Codec
Format profile : High@L4.1
Format settings, CABAC : Yes
Format settings, ReFrames : 16 frames
Codec ID : V_MPEG4/ISO/AVC
Duration : 1 h 21 min
Bit rate : 2 366 kb/s
Width : 718 pixels
Height : 556 pixels
Display aspect ratio : 1.376
Original display aspect rat : 1.377
Frame rate mode : Constant
Frame rate : 25.000 FPS
Color space : YUV
Chroma subsampling : 4:2:0
Bit depth : 8 bits
Scan type : Progressive
Bits/(Pixel*Frame) : 0.237
Stream size : 1.31 GiB (91%)
Title : Крылья.1966
Writing library : x264 core 152 r2851kMod ba24899
Encoding settings : cabac=1 / ref=16 / deblock=1:-3:-1 / analyse=0x3:0x133 / me=umh / subme=11 / psy=1 / fade_compensate=0.00 / psy_rd=1.07:0.15 / mixed_ref=1 / me_range=32 / chroma_me=1 / trellis=2 / 8x8dct=1 / cqm=0 / deadzone=21,11 / fast_pskip=0 / chroma_qp_offset=-3 / threads=12 / lookahead_threads=3 / sliced_threads=0 / nr=0 / decimate=0 / interlaced=0 / bluray_compat=0 / constrained_intra=0 / bframes=11 / b_pyramid=2 / b_adapt=2 / b_bias=0 / direct=3 / weightb=1 / open_gop=0 / weightp=2 / keyint=250 / keyint_min=25 / scenecut=40 / intra_refresh=0 / rc_lookahead=60 / rc=2pass / mbtree=0 / bitrate=2366 / ratetol=1.0 / qcomp=0.60 / qpmin=0 / qpmax=69 / qpstep=4 / cplxblur=20.0 / qblur=0.5 / vbv_maxrate=62500 / vbv_bufsize=78125 / nal_hrd=none / filler=0 / ip_ratio=1.35 / pb_ratio=1.30 / aq=1:0.50
Language : Russian
Default : Yes
Forced : No
Color range : Limited
Color primaries : BT.601 PAL
Transfer characteristics : BT.470 System B, BT.470 System G
Matrix coefficients : BT.601
Audio
ID : 2
Format : AC-3
Format/Info : Audio Coding 3
Mode extension : CM (complete main)
Format settings, Endianness : Big
Codec ID : A_AC3
Duration : 1 h 21 min
Bit rate mode : Constant
Bit rate : 192 kb/s
Channel(s) : 2 channels
Channel positions : Front: L R
Sampling rate : 48.0 kHz
Frame rate : 31.250 FPS (1536 spf)
Compression mode : Lossy
Stream size : 112 MiB (8%)
Title : Оригинал AC-3; 16 bits 48 Khz; 2.0ch 192 Kbps; CBR.
Language : Russian
Default : Yes
Forced : No

Скриншоты

[cybertorrent.ru].t44217.torrent 
Торрент: Зарегистрирован [ 2018-03-25 14:40 ] · 1B20FEF41D2DCE6CE2715CC70CC620D9557DCA7B

Скачать .torrent

Скачать

15 KB

Статус: проверено
Скачан: 0 раз
Размер: 1,45 GB
Профиль [ЛС]
Показать сообщения:    

Текущее время: 18-Июл 05:02

Часовой пояс: UTC ± 0



Вы не можете начинать темы
Вы не можете отвечать на сообщения
Вы не можете редактировать свои сообщения
Вы не можете удалять свои сообщения
Вы не можете голосовать в опросах
Вы не можете прикреплять файлы к сообщениям
Вы можете скачивать файлы