BitTorrent клиенты



Ангел любви / Замужняя женщина / Parineeta (Прадип Саркар / Pradeep Sarkar) [2005, Индия, мюзикл, драма, мелодрама, DVD9 (Custom)] MVO + Original Hin

Ответить на тему
Статистика раздачи
Размер:  6,67 GB   |    Зарегистрирован:  7 месяцев 22 дня   |    Скачан:  0 раз

Полного источника не было: Никогда

 
   
 
 
Автор Сообщение

zaja ®

Пол: Не указан

Стаж: 1 год

Сообщений: 405

Создавать темы 30-Июн-2018 15:54

[Цитировать]

Ангел любви / Замужняя женщина / Parineeta
Страна: Индия
Жанр: мюзикл, драма, мелодрама
Год выпуска: 2005
Продолжительность: 02:09:37
Перевод: Профессиональный (многоголосый, закадровый)
Субтитры: 2х русские, английские
Оригинальная аудиодорожка: хинди
Режиссер: Прадип Саркар / Pradeep Sarkar
В ролях: Саиф Али Кхан, Видья Балан, Санджай Датт, Дия Мирза, Райма Сен, Сабьясачи Чакраборти, Нинад Камат, Ачьют Потдар, Рекха, Суриндер Каур
Описание: События происходят в Калькутте в 1962 году, когда маленькая Лолита приезжает жить в семью своего дяди, где судьба сталкивает ее с мальчиком Шекхаром, способным музыкантом, сыном влиятельного бизнесмена.
С этого времени они разделяют радости и печали. Незаметно для них их дружба перерастает в любовь, которую они даже не замечают. И только появление в их жизни нового человека, Гириша, раскрывает им настоящие чувства друг к другу.
Меню: есть, английское
Тип релиза: DVD9 (Custom)
Контейнер: DVD-Video
Видео: NTSC 16:9 (720x480(0.647)) MPEG Video, 23,976 кадр/сек, 5363 Кбит/сек
Аудио: Russian (Dolby AC-3, 2 ch) 448 Кбит/сек, 48.0 КГц
Аудио 2: Hindi (DTS, 6 ch) 768 Кбит/сек, 48.0 КГц
Аудио 3: Hindi (Dolby AC-3, 6 ch) 448 Кбит/сек, 48.0 КГц
Аудио 4: Hindi (Dolby AC-3, 2 ch) 192 Кбит/сек, 48.0 КГц, Комментарий

Доп. информация по релизу

Перевод субтитров: Mister-X, Katch (КиноКлуб "LM")
Синхронизация звука, субтитров и релиз DVD: Mister-X

MediaInfo

Общее
Полное имя : Angel_l'ubvi_[torrents.ru]\VIDEO_TS\VTS_03_1.VOB
Формат : MPEG-PS
Размер файла : 1024 Мбайт
Продолжительность : 19 м. 28 с.
Режим общего битрейта : Переменный
Общий поток : 7352 Кбит/сек
Видео
Идентификатор : 224 (0xE0)
Формат : MPEG Video
Версия формата : Version 2
Профиль формата : Main@Main
Настройки формата : CustomMatrix / BVOP
Параметр BVOP формата : Да
Параметр матрицы формата : Выборочная
Параметр GOP формата : Variable
Продолжительность : 19 м. 28 с.
Вид битрейта : Переменный
Битрейт : 5363 Кбит/сек
Максимальный битрейт : 9300 Кбит/сек
Ширина : 720 пикселей
Высота : 480 пикселей
Соотношение сторон : 16:9
Частота кадров : 23,976 (24000/1001) кадра/сек
Цветовое пространство : YUV
Субдискретизация насыщенности : 4:2:0
Битовая глубина : 8 бит
Тип развёртки : Прогрессивная
Порядок развёртки : 2:3 Pulldown
Метод сжатия : С потерями
Бит/(Пиксели*Кадры) : 0.647
Временной код первого кадра : 00:00:00;00
Оригинал временного кода : Group of pictures header
GOP, открыто/закрыто : Открыто
GOP, открыто/закрыто на первом кадре : Закрыто
Размер потока : 747 Мбайт (73%)
Аудио #1
Идентификатор : 189 (0xBD)-128 (0x80)
Формат : AC-3
Формат/Информация : Audio Coding 3
Режим смешивания : DVD-Video
Продолжительность : 19 м. 28 с.
Вид битрейта : Постоянный
Битрейт : 448 Кбит/сек
Каналы : 2 канала
Расположение каналов : Front: L R
Частота : 48,0 КГц
Частота кадров : 31,250 кадров/сек (1536 SPF)
Битовая глубина : 16 бит
Метод сжатия : С потерями
Размер потока : 62,4 Мбайт (6%)
ServiceKind/String : Complete Main
Аудио #2
Идентификатор : 189 (0xBD)-130 (0x82)
Формат : AC-3
Формат/Информация : Audio Coding 3
Режим смешивания : DVD-Video
Продолжительность : 19 м. 28 с.
Вид битрейта : Постоянный
Битрейт : 448 Кбит/сек
Каналы : 6 каналов
Расположение каналов : Front: L C R, Side: L R, LFE
Частота : 48,0 КГц
Частота кадров : 31,250 кадров/сек (1536 SPF)
Битовая глубина : 16 бит
Метод сжатия : С потерями
Размер потока : 62,4 Мбайт (6%)
ServiceKind/String : Complete Main
Аудио #3
Идентификатор : 189 (0xBD)-131 (0x83)
Формат : AC-3
Формат/Информация : Audio Coding 3
Режим смешивания : DVD-Video
Продолжительность : 19 м. 28 с.
Вид битрейта : Постоянный
Битрейт : 192 Кбит/сек
Каналы : 2 канала
Расположение каналов : Front: L R
Частота : 48,0 КГц
Частота кадров : 31,250 кадров/сек (1536 SPF)
Битовая глубина : 16 бит
Метод сжатия : С потерями
Размер потока : 26,7 Мбайт (3%)
ServiceKind/String : Complete Main
Аудио #4
Идентификатор : 189 (0xBD)-137 (0x89)
Формат : DTS
Формат/Информация : Digital Theater Systems
Режим смешивания : DVD-Video
Продолжительность : 19 м. 28 с.
Вид битрейта : Постоянный
Битрейт : 755 Кбит/сек
Каналы : 6 каналов
Расположение каналов : Front: L C R, Side: L R, LFE
Частота : 48,0 КГц
Частота кадров : 93,750 кадра/сек (512 SPF)
Битовая глубина : 24 бит
Метод сжатия : С потерями
Размер потока : 105 Мбайт (10%)
Текст #1
Идентификатор : 189 (0xBD)-32 (0x20)
Формат : RLE
Формат/Информация : Run-length encoding
Режим смешивания : DVD-Video
Текст #2
Идентификатор : 189 (0xBD)-33 (0x21)
Формат : RLE
Формат/Информация : Run-length encoding
Режим смешивания : DVD-Video
Текст #3
Идентификатор : 189 (0xBD)-34 (0x22)
Формат : RLE
Формат/Информация : Run-length encoding
Режим смешивания : DVD-Video

Скриншоты меню

Скриншоты

[cybertorrent.ru].t45591.torrent 
Торрент: Зарегистрирован [ 2018-06-30 15:55 ] · 321D1F70349B1D9EB4EE5B8E76444A128D86DD0B

Скачать .torrent

Скачать

18 KB

Статус: проверено
Скачан: 0 раз
Размер: 6,67 GB
terms.php
[Профиль] [ЛС]
Показать сообщения:    
Ответить на тему

Текущее время: 23-Фев 15:54

Часовой пояс: UTC + 3



Вы не можете начинать темы
Вы не можете отвечать на сообщения
Вы не можете редактировать свои сообщения
Вы не можете удалять свои сообщения
Вы не можете голосовать в опросах
Вы не можете прикреплять файлы к сообщениям
Вы можете скачивать файлы