BitTorrent клиенты



И это всё о нём (1977) (Игорь Шатров) [1977, детектив, драма, экранизация, DVB-AVC]

Ответить на тему
Статистика раздачи
Размер:  8,4 GB   |    Зарегистрирован:  7 месяцев 23 дня   |    Скачан:  0 раз

Полного источника не было: Никогда

 
   
 
 
Автор Сообщение

Awrora ®

Пол: Не указан

Стаж: 1 год

Сообщений: 325

Создавать темы 30-Июн-2018 15:54

[Цитировать]

И это всё о нём (1977)
Жанр: детектив, драма, экранизация
Год выпуска: 1977
Продолжительность: 06:47:09
Режиссёр: Игорь Шатров
В ролях: Евгений Леонов, Игорь Костолевский, Леонид Марков, Эммануил Виторган, Лариса Удовиченко, Владимир Носик, Алексей Панькин, Виктор Проскурин, Александр Кавалеров, Любовь Полехина, Людмила Чурсина, Николай Парфёнов, Альберт Филозов, Юрий Каюров, Сергей Курилов, Борис Гусаков, Валентина Талызина, Дмитрий Шутов, Лидия Савченко, Евгений Быкадоров, Елизавета Кузюрина, Юрий Сучков
Описание: «И это всё о нём» — советский художественный телевизионный 6-серийный фильм по одноимённому роману Виля Липатова.
Погиб Евгений Столетов, рабочий леспромхоза. Следователь Прохоров в случайность гибели парня не верит. Тем более, что характер Жени многим в леспромхозе не давал покоя. Его открытая борьба с подлогами, ложью стала поводом для сведения счетов...
Семпл: https://yadi.sk/i/2OCV4dk93YFm79
Качество видео: DVB
Формат видео: TS
Видео: Mpeg Video AVC, 720x576, 4:3, ~2690 Кбит/сек, 25 кадров/сек
Аудио: Mpeg Audio MP2, 128 kbps, 48Khz, 2Ch

MediaInfo

Общее
Идентификатор : 1 (0x1)
Полное имя : H:\И это всё о нём(Ретро)\И это всё о нём 1 серия.ts
Формат : MPEG-TS
Размер файла : 1,49 Гбайт
Продолжительность : 1 ч. 12 м.
Режим общего битрейта : Переменный
Общий поток : 2946 Кбит/сек
Видео
Идентификатор : 256 (0x100)
Идентификатор меню : 1 (0x1)
Формат : MPEG Video
Версия формата : Version 2
Профиль формата : Main@Main
Настройки формата : CustomMatrix / BVOP
Параметр BVOP формата : Да
Параметр матрицы формата : Выборочная
Параметр GOP формата : Variable
Структура изображения : Frame
Идентификатор кодека : 2
Продолжительность : 1 ч. 12 м.
Вид битрейта : Постоянный
Битрейт : 2690 Кбит/сек
Ширина : 720 пикселей
Высота : 576 пикселей
Соотношение сторон : 4:3
Частота кадров : 25,000 кадров/сек
Стандарт вещания : PAL
Цветовое пространство : YUV
Субдискретизация насыщенности : 4:2:0
Битовая глубина : 8 бит
Тип развёртки : Чересстрочная
Порядок развёртки : Верхнее поле первое
Метод сжатия : С потерями
Бит/(Пиксели*Кадры) : 0.259
Временной код первого кадра : 00:00:00:00
Оригинал временного кода : Group of pictures header
GOP, открыто/закрыто : Открыто
GOP, открыто/закрыто на первом кадре : Закрыто
Размер потока : 1,35 Гбайт (91%)
Аудио
Идентификатор : 257 (0x101)
Идентификатор меню : 1 (0x1)
Формат : MPEG Audio
Версия формата : Version 1
Профиль формата : Layer 2
Идентификатор кодека : 3
Продолжительность : 1 ч. 12 м.
Вид битрейта : Постоянный
Битрейт : 128 Кбит/сек
Каналы : 2 канала
Частота : 48,0 КГц
Частота кадров : 41,667 кадра/сек (1152 SPF)
Метод сжатия : С потерями
Задержка видео : 22 мс.
Размер потока : 66,3 Мбайт (4%)
Язык : Russian
[cybertorrent.ru].t45619.torrent 
Торрент: Зарегистрирован [ 2018-06-30 15:55 ] · 6BFB636E79D9D359CBDCFC6154B5F4973B62A69F

Скачать .torrent

Скачать

43 KB

Статус: проверено
Скачан: 0 раз
Размер: 8,4 GB
terms.php
[Профиль] [ЛС]
Показать сообщения:    
Ответить на тему

Текущее время: 23-Фев 16:19

Часовой пояс: UTC + 3



Вы не можете начинать темы
Вы не можете отвечать на сообщения
Вы не можете редактировать свои сообщения
Вы не можете удалять свои сообщения
Вы не можете голосовать в опросах
Вы не можете прикреплять файлы к сообщениям
Вы можете скачивать файлы