Статистика раздачи
Размер:  4,82 GB   |    Зарегистрирован:  7 месяцев 18 дней   |    Скачан:  0 раз

Полного источника не было: Никогда

 
   
 
 

soda ®

Пол:
Не указан
Стаж:
9 месяцев 5 дней
Сообщений:
184

Незаконченный ужин
Жанр: экранизация, политический детектив
Год выпуска: 1979
Продолжительность: 01:05:44 + 01:02:43
Режиссёр: Янис Стрейч
В ролях: Улдис Ваздикс, Ромуальд Анцанс, Янис Паукштелло, Паул Буткевич, Аквелина Ливмане, Болеслав Руж, Волдемар Лобиньш, Бертулис Пизич, Артур Димитерс, Лилита Берзиня, Лилия Америка, Эвалдс Валтерс, Мирдза Мартинсоне, Регина Разума, Ингрид Андриня, Анита Грубе, Арнольд Лининьш, Ивар Калныньш, Арийс Гейкинс, Александр Лейманис, Илга Витола, Катрина Пастернак, Светлана Блесс-Пуце, Эдгар Лиепиньш, Ольгерт Дункерс, Байба Индриксоне, Леонс Криванс, Ингрида Целма, Лигита Скуиня, Таливалдис Аболиньш , Эдуард Павулс, Янис Стрейч, Лилита Озолиня
Описание: Фильм снят по мотивам романа шведских писателей П. Вале и М. Шевалл "Полиция, полиция, картофельное пюре". В одной западной стране в шикарном ресторане за ужином убивают миллионера. Для ускорения следствия из столицы направлен известный комиссар, ибо затягивание дела грозит скандалом в "высших сферах". Чиновники всячески пытаются направить следствие по удобному им руслу.
Доп. информация: Запись потока *.ts со спутника Экспресс АМ6, 53° в.д., ремукс в *.mkv программой VideoReDo.
Качество видео: DVB
Формат видео: MKV
Видео: MPEG Video, 1024x576 (16:9), 25,000 кадров/сек, 5 012 Кбит/сек
Аудио: MPEG Audio, 48,0 КГц, 256 Кбит/сек, 2 канала

MediaInfo

General
Unique ID : 198129516200281897053126722315279725607 (0x950E5B580318332903707DC6EAB0F427)
Complete name : D:\Torrent\НЕЗАКОНЧЕННЫЙ УЖИН\НЕЗАКОНЧЕННЫЙ УЖИН 1 (Kultura 53).mkv
Format : Matroska
Format version : Version 2
File size : 2.47 GiB
Duration : 1 h 5 min
Overall bit rate mode : Variable
Overall bit rate : 5 375 kb/s
Writing application : Lavf52.64.2
Writing library : Lavf52.64.2
Video
ID : 1
Format : MPEG Video
Format version : Version 2
Format profile : Main@Main
Format settings : CustomMatrix / BVOP
Format settings, BVOP : Yes
Format settings, Matrix : Custom
Format settings, GOP : M=3, N=15
Format settings, picture st : Frame
Codec ID : V_MPEG2
Codec ID/Info : MPEG 1 or 2 Video
Duration : 1 h 5 min
Bit rate mode : Variable
Bit rate : 5 012 kb/s
Maximum bit rate : 15.0 Mb/s
Width : 720 pixels
Height : 576 pixels
Display aspect ratio : 16:9
Original display aspect rat : 16:9
Frame rate mode : Constant
Frame rate : 25.000 FPS
Standard : PAL
Color space : YUV
Chroma subsampling : 4:2:0
Bit depth : 8 bits
Scan type : Interlaced
Scan order : Top Field First
Compression mode : Lossy
Bits/(Pixel*Frame) : 0.483
Stream size : 2.30 GiB (93%)
Default : Yes
Forced : No
Audio
ID : 2
Format : MPEG Audio
Format version : Version 1
Format profile : Layer 2
Codec ID : A_MPEG/L2
Codec ID/Hint : MP2
Duration : 1 h 5 min
Bit rate mode : Constant
Bit rate : 256 kb/s
Channel(s) : 2 channels
Sampling rate : 48.0 kHz
Compression mode : Lossy
Delay relative to video : 10 ms
Stream size : 120 MiB (5%)
Language : English
Default : Yes
Forced : No
[cybertorrent.ru].t45615.torrent 
Торрент: Зарегистрирован [ 2018-04-02 04:15 ] · 9C6569000A9AB33EA720B9AF9D08F0BD1927F993

Скачать .torrent

Скачать

25 KB

Статус: проверено
Скачан: 0 раз
Размер: 4,82 GB
Профиль [ЛС]
Показать сообщения:    

Текущее время: 20-Ноя 20:01

Часовой пояс: UTC ± 0



Вы не можете начинать темы
Вы не можете отвечать на сообщения
Вы не можете редактировать свои сообщения
Вы не можете удалять свои сообщения
Вы не можете голосовать в опросах
Вы не можете прикреплять файлы к сообщениям
Вы можете скачивать файлы
Torrents24.ru открытый BitTorrent Torrents24.pl открытый BitTorrent CyberTorrent.ru открытый BitTorrent BtList.ru рейтинг BitTorrent трекеров Яндекс.Метрика