Статистика раздачи
Размер:  1,08 GB   |    Зарегистрирован:  3 месяца 15 дней   |    Скачан:  0 раз

Полного источника не было: Никогда

 
   
 
 

soda ®

Пол:
Не указан
Стаж:
5 месяцев 2 дня
Сообщений:
205

Право на выстрел
Жанр: Приключения
Год выпуска: 1981
Продолжительность: 01:19:52
Режиссёр: Виктор Живолуб
В ролях: Владимир Ивашов, Александр Мартынов, Регина Разума, Александр Яковлев, Александр Черкасов, Талгат Нигматулин, Олег Ли, Ментай Утепбергенов, Болот Бейшеналиев, Юрий Майнагашев, Виктор Лоренц, Александр Январев, Николай Погодин, Геннадий Четвериков, Татьяна Астратьева, Геннадий Петров, Радий Афанасьев, Станислав Коренев, Игорь Пушкарев, Николай Губанов
Описание: Пограничный сторожевой корабль, которым командует Алексей Никитин, обнаруживает неправомерные действия иностранных рыболовецких судов в наших территориальных водах. Опытный командир разгадывает планы противника и начинает преследовать замаскированное под краболова разведывательное судно...
Доп. информация:
Автор релиза -
Источник аудио и видео для рипа - моя запись с т/к Звезда



Сэмпл: https://yadi.sk/i/5HPh8grK3Towie
Рекламы нет!
Качество видео: SATRip
Формат видео: AVI
Видео: XviD, 720x384 (1,85:1), 25.000 fps, 1739 kbps, 0.252 bit/pixel
Аудио: Русский AC3, 48000 Гц, 2ch, 192 kbps

MediaInfo

Общее
Полное имя : D:\Право.на.выстрел.1981.SATRip-ylnian.avi
Формат : AVI
Формат/Информация : Audio Video Interleave
Размер файла : 1,08 Гбайт
Продолжительность : 1 ч. 19 м.
Общий поток : 1941 Кбит/сек
Программа кодирования : VirtualDubMod 1.5.10.2 (build 2540/release)
Библиотека кодирования : VirtualDubMod build 2540/release
Видео
Идентификатор : 0
Формат : MPEG-4 Visual
Профиль формата : Advanced Simple@L5
Настройки формата : BVOP1
Параметр BVOP формата : 1
Параметр QPel формата : Нет
Параметр GMC формата : Без точки перехода
Параметр матрицы формата : Default (MPEG)
Идентификатор кодека : XVID
Идентификатор кодека/Подсказка : XviD
Продолжительность : 1 ч. 19 м.
Битрейт : 1739 Кбит/сек
Ширина : 720 пикселей
Высота : 384 пикселя
Соотношение сторон : 1,85:1
Частота кадров : 25,000 кадров/сек
Цветовое пространство : YUV
Субдискретизация насыщенности : 4:2:0
Битовая глубина : 8 бит
Тип развёртки : Прогрессивная
Метод сжатия : С потерями
Бит/(Пиксели*Кадры) : 0.252
Размер потока : 993 Мбайт (90%)
Библиотека кодирования : XviD 67
Аудио
Идентификатор : 1
Формат : AC-3
Формат/Информация : Audio Coding 3
Идентификатор кодека : 2000
Продолжительность : 1 ч. 19 м.
Вид битрейта : Постоянный
Битрейт : 192 Кбит/сек
Каналы : 2 канала
Расположение каналов : Front: L R
Частота : 48,0 КГц
Частота кадров : 31,250 кадров/сек (1536 SPF)
Битовая глубина : 16 бит
Метод сжатия : С потерями
Размер потока : 110 Мбайт (10%)
Выравнивание : Разделение по промежуткам
Продолжительность промежутка : 40 мс. (1,00 видеокадр)
Время предзагрузки промежутка : 500 мс.
ServiceKind/String : Complete Main

Сравнение

Сравнение скриншотов с DVDRip - в моём релизе иное наполнение кадра, насыщеннее цвета, чётче картинка:
DVDRip --->>> SATRip
--->>>
--->>>
--->>>
--->>>
--->>>
[cybertorrent.ru].t45830.torrent 
Торрент: Зарегистрирован [ 2018-04-02 08:00 ] · 573E3A5C0F738E91AD6233056FC59F333DE2B489

Скачать .torrent

Скачать

11 KB

Статус: проверено
Скачан: 0 раз
Размер: 1,08 GB
Профиль [ЛС]
Показать сообщения:    

Текущее время: 18-Июл 05:03

Часовой пояс: UTC ± 0



Вы не можете начинать темы
Вы не можете отвечать на сообщения
Вы не можете редактировать свои сообщения
Вы не можете удалять свои сообщения
Вы не можете голосовать в опросах
Вы не можете прикреплять файлы к сообщениям
Вы можете скачивать файлы