BitTorrent клиенты



Экстремальные охотники за привидениями / Extreme Ghostbusters / Сезон: 1 / Серии: 1-40 из 40 (Ричард Рэйнис / Richard Raynis) [1997, приключения, WEBRip 480p] Dub (ОРТ) + Dub (СТС) + Original + Sub

Ответить на тему
Статистика раздачи
Размер:  8,4 GB   |    Зарегистрирован:  7 месяцев 13 дней   |    Скачан:  0 раз

Полного источника не было: Никогда

 
   
 
 
Автор Сообщение

omniva ®

Пол: Не указан

Стаж: 1 год

Сообщений: 337

Создавать темы 10-Июл-2018 15:59

[Цитировать]

-Экстремальные Охотники за Привидениями / Extreme Ghostbusters- Английское название: Extreme Ghostbusters
Русское название: Экстремальные Охотники за привидениями
Год выпуска: 1997
Страна: США.
Жанр: Приключения.
Продолжительность: ТВ (40 эп.), ~ 23 минуты
Перевод: Профессиональный (Полное Дублирование) "AB-Video" по заказу ОРТ
Перевод: Профессиональный (Полное Дублирование) "СВ-Дубль" по заказу СТС
Субтитры: Есть (английские)-Описание: Кого можно встретить на ночных улицах Нью-Йорка? Запоздалые прохожие, влюблённые парочки, машины, отъезжающие от кафе и кинотеатров, последние пассажиры метро, - жизнь мегаполиса не останавливается ни на минуту.
В тёмное время суток нужно быть особенно осторожными - город наводняют существа, каждое из которых пострашнее целой банды уличных хулиганов. Это привидения!
Среди них мало таких безобидных и милых созданий как Каспер! Призраки Нью-Йорка – могущественные монстры, которые вырастают до размеров небоскрёба, изменяют форму, просачиваются сквозь стены и люки городской канализации, и крушат всё вокруг, как Годзилла. Причём обычными средствами совладать с ними невозможно: ни танк, ни автомат, ни гранатомёт не возьмёт монстра.
Известный учёный, доктор Игон Спенглер, всю свою научную карьеру посвятил изучению привидений. Игон Спенглер сделал целый ряд важнейших научных открытий: он доказал, что каждый призрак распространяет эктоплазменное излучение, по которому его легко вычислить. На основе своей теории доктор Спенглер создал детекторы привидений, бластеры, и организовал первый отряд охотников за привидениями.
Новый отряд охотников за привидениями сформирован из лучших студентов Игона Спенглера, а Игон остаётся их руководителем, отправляя ребят на очередное задание.
Релиз от: Над релизом работали:
SergeZuich - Предоставил WEBRip'ы
ALEKS KV - Предоставил дорожки СТС, сведение, чистка, оцифровка звука, итоговый муксинг.
darkness088 - Предоставил кассеты с переводом ОРТ.
Deman - Предоставил оцифровки дорожек ОРТ.
Apathie - Предоставил оцифровки дорожек ОРТ.
kinaman - Предоставил оцифровки дорожек ОРТ, предоставил дорожки с СТС.
manhunt - Предоставил оцифровки дорожек ОРТ.
S F S - Предоставил оцифровки дорожек ОРТ.
Evgenich665 - Предоставил оцифровки дорожек ОРТ.
Lexa1988-L1 - Предоставил дорожки СТС.
mihail2501 .......Выкачивание серий и хранение оригинальных видео с ТВ3.
utas .......Запись видео ряда и звука с канала ТВ3.
Ссылка на остальные раздачи

В Русском озвучании принимали участие:

Дубляж "AB-Video" по заказу ОРТ

Александр Новиков: Эгон Спенглер, Роланд Джексон [01-40 Серии]
Юрий Меншагин: Гарретт Миллер [10,15-21,23-27,29,33-38,40 Серии]
Андрей Казанцев: Эдуардо Ривера [02,10,16-18,21,23-24,28,31-32 Серии]
Ирина Гришина: Кайли Гриффин, Жанин Мелнитц [01-40 Серии]
Станислав Стрелков: Гарретт Миллер [02,28,30-32 Серии] Эдуардо Ривера [15,27,29,33-38,40 Серии]
Геннадий Карпов: Гарретт Миллер [??? Серии]
Степан Старчиков: Гарретт Миллер [01,03-09,11-14,22,39 Серии]
Василий Рыбин: Эдуардо Ривера [??? Серии]

Дубляж по заказу СТС

Андрей Ярославцев: Игон Спенглер [01-40 Серии]
Александр Комлев: Роланд Джексон [02-03,07-38,40 Серии]
Дмитрий Филимонов: Гарретт Миллер, Лизун [01-40 Серии]
Владимир Антоник: Роланд Джексон [01,04-06,39 Серии], Эдуардо Ривера [02-40 Серии]
Ольга Зубкова: Кайли Гриффин, Жанин Мелнитц [01-40 Серии]
-Доп. Информация:
В дорожках ОРТ имеются пропуски, которые было нечем запатчить. Ищим недостающие кусочки дубляжа:

Пропуски

====================
1x02
00:00-00:03
====================
1x04
00:00-00:13
====================
1x15
00:00-00:02
====================
1x22
00:00-00:07
====================
1x27
00:00-00:02
====================
1x34
00:00-02:25
====================
1x37
00:00-00:03
====================
1x38
00:00-00:03
====================
Сэмпл
Качество: WEBRip (Hulu)
Формат: MKV
Видео: MPEG-4 AVC, 640x480 (4:3), 23.976 fps ~1000 Kbps
Аудио:

  • русская: Dolby AC3 48000Hz ---|DualMono|--- 192Kbps [ОРТ] (01-40 серии)
  • русская: Dolby AC3 48000Hz ------|Stereo|------ 192Kbps [СТС] (01-40 серии) {Серия 1x38 - DualMono}
  • английская: Dolby AC3 48000Hz -|Stereo|---- 192Kbps [Оригинал] (01-13 серии)
  • английская: HE-AAC 48000Hz ----|Stereo|----- 64Kbps [Оригинал] (14-40 серии) {Серия 1x35 - DualMono}
    -Субтитры:
  • Английские (01-40 серии)-

    Наличие серий в раздаче

    01. Темнота в Полдень - Часть 1
    02. Темнота в Полдень - Часть 2
    03. Истинное лицо монстра
    04. Собственный страх
    05. Демоническая поэзия
    06. Избранные
    07. Адская Машина
    08. Дом ужасов
    09. Убийцы смеха
    10. Невидимое
    11. Жучиная свадьба
    12. Призрачный флейтист с Манхеттена
    13. Осторожнее с Желанием
    14. Гремлин
    15. Дьявол Джерси
    16. Призрак из морских глубин
    17. Зов сирены
    18. Призрак апокалиптического будущего
    19. Хищная птица
    20. Семена раздора
    21. Ирландская удача
    22. Создатели призраков
    23. Жертва - Лизун
    24. Грюндель
    25. В твоих мечтах
    26. Призрак Моби Дика
    27. Ядерная Опасность
    28. Глаза Дракона
    29. Пока смерть не разлучит нас
    30. Прожорливый Монстр
    31. Призрак в машине
    32. Собачьи Дни
    33. Люди-Кроты
    34. Помешательство
    35. Гнев
    36. Сердце Тьмы
    37. Снова в седле - Часть 1
    38. Снова в седле - Часть 2
    39. Сфинкс
    40. Ведьмы

    Подробные технические данные

    General
    Unique ID : 224675350455107839125927659524645135524 (0xA906E605742E447EA27081D5B42F24A4)
    Complete name : x:xxxxx\[M-KV2501] Extreme Ghostbusters 1x06 [WEBRip Hulu].mkv
    Format : Matroska
    Format version : Version 4 / Version 2
    File size : 235 MiB
    Duration : 21 min 54 s
    Overall bit rate : 1 500 kb/s
    Encoded date : UTC 2018-04-04 18:49:23
    Writing application : mkvmerge v8.3.0 ('Over the Horizon') 64bit
    Writing library : libebml v1.3.1 + libmatroska v1.4.2
    Video
    ID : 1
    Format : AVC
    Format/Info : Advanced Video Codec
    Format profile : High@L3
    Format settings : CABAC / 5 Ref Frames
    Format settings, CABAC : Yes
    Format settings, ReFrames : 5 frames
    Codec ID : V_MPEG4/ISO/AVC
    Duration : 21 min 54 s
    Bit rate : 922 kb/s
    Width : 640 pixels
    Height : 480 pixels
    Display aspect ratio : 4:3
    Frame rate mode : Constant
    Frame rate : 23.976 (24000/1001) FPS
    Color space : YUV
    Chroma subsampling : 4:2:0
    Bit depth : 8 bits
    Scan type : Progressive
    Bits/(Pixel*Frame) : 0.125
    Stream size : 145 MiB (61%)
    Title : Original
    Language : English
    Default : Yes
    Forced : No
    Audio #1
    ID : 2
    Format : AC-3
    Format/Info : Audio Coding 3
    Codec ID : A_AC3
    Duration : 21 min 54 s
    Bit rate mode : Constant
    Bit rate : 192 kb/s
    Channel(s) : 2 channels
    Channel positions : Front: L R
    Sampling rate : 48.0 kHz
    Frame rate : 31.250 FPS (1536 SPF)
    Bit depth : 16 bits
    Compression mode : Lossy
    Stream size : 30.1 MiB (13%)
    Title : ОРТ
    Language : Russian
    Service kind : Complete Main
    Default : Yes
    Forced : No
    Audio #2
    ID : 3
    Format : AC-3
    Format/Info : Audio Coding 3
    Codec ID : A_AC3
    Duration : 21 min 54 s
    Bit rate mode : Constant
    Bit rate : 192 kb/s
    Channel(s) : 2 channels
    Channel positions : Front: L R
    Sampling rate : 48.0 kHz
    Frame rate : 31.250 FPS (1536 SPF)
    Bit depth : 16 bits
    Compression mode : Lossy
    Stream size : 30.1 MiB (13%)
    Title : СТС
    Language : Russian
    Service kind : Complete Main
    Default : No
    Forced : No
    Audio #3
    ID : 4
    Format : AC-3
    Format/Info : Audio Coding 3
    Codec ID : A_AC3
    Duration : 21 min 54 s
    Bit rate mode : Constant
    Bit rate : 192 kb/s
    Channel(s) : 2 channels
    Channel positions : Front: L R
    Sampling rate : 48.0 kHz
    Frame rate : 31.250 FPS (1536 SPF)
    Bit depth : 16 bits
    Compression mode : Lossy
    Stream size : 30.1 MiB (13%)
    Title : Original
    Language : English
    Service kind : Complete Main
    Default : No
    Forced : No
    Text
    ID : 5
    Format : UTF-8
    Codec ID : S_TEXT/UTF8
    Codec ID/Info : UTF-8 Plain Text
    Duration : 20 min 53 s
    Bit rate : 62 b/s
    Count of elements : 314
    Stream size : 9.53 KiB (0%)
    Title : Original
    Language : English
    Default : No
    Forced : No

    Правила, условия распространения (к прочтению обязательно)

    Внимание, данная раздача содержит эксклюзивный контент от M-KV2501. Использовать контент без баннера группы: , указания первоначального источника, а так же оригинальных названий файлов - ЗАПРЕЩЕНО! Уважайте чужой труд!
    [cybertorrent.ru].t46678.torrent 
    Торрент: Зарегистрирован [ 2018-07-10 16:00 ] · A375EEAECDEF30AFB00D888F47B20B01E30723B1

    Скачать .torrent

    Скачать

    46 KB

    Статус: проверено
    Скачан: 0 раз
    Размер: 8,4 GB
    terms.php
  • [Профиль] [ЛС]
    Показать сообщения:    
    Ответить на тему

    Текущее время: 23-Фев 16:06

    Часовой пояс: UTC + 3



    Вы не можете начинать темы
    Вы не можете отвечать на сообщения
    Вы не можете редактировать свои сообщения
    Вы не можете удалять свои сообщения
    Вы не можете голосовать в опросах
    Вы не можете прикреплять файлы к сообщениям
    Вы можете скачивать файлы