BitTorrent клиенты



Мосты округа Мэдисон / The bridges of Madison county (Клинт Иствуд / Clint Eastwood) [1995, США, драма, мелодрама, HDTVRip 720p]

Ответить на тему
Статистика раздачи
Размер:  6,14 GB   |    Зарегистрирован:  6 месяцев 15 дней   |    Скачан:  0 раз

Полного источника не было: Никогда

 
   
 
 
Автор Сообщение

RussianGirl ®

Пол: Не указан

Стаж: 1 год

Сообщений: 1309

Создавать темы 08-Авг-2018 15:49

[Цитировать]

Мосты округа Мэдисон / The Bridges of Madison County- Название: Мосты округа Мэдисон
Оригинальное название: The bridges of Madison county
Год выхода: 1995
Жанр: Мелодрама, драма
Режисcер: Клинт Иствуд
В ролях: Мэрил Стрип, Клинт Иствуд, Анни Корли, Виктор Слезак, Джим Хейни
О фильме: Франческа — жена американского фермера и мать двоих детей. Она родом из Южной Италии, где ее романтическим мечтам не суждено было сбыться. Неожиданно в ее монотонную жизнь вмешивается судьба: встреча с Робертом. Роберт — свободный фотограф, он давно уже привык жить один. Но эта встреча меняет и его судьбу. Они страстно и без оглядки влюбились друг в друга. На эту любовь, о которой они мечтали всю жизнь, им отпущено всего 4 дня.
Выпущено: США - Warner Bros. Pictures Co.
Продолжительность: 02:07:20
Качество: HDTVRip 720p
Видео: x.264, PAL 25.00, 1280 x 720, 5 012 кбит/с
Звук #1: Русский (Профессиональный (многоголосый)), AC3, 6ch (L, C, R, Ls, Rs +LFE), 448 кбит/с 48 KHz |Лицензия |
Звук #2: Русский (Профессиональный (многоголосый)), AC3, 2ch (L,R), 192 кбит/с 48 KHz|Лицензия |
Звук #3: Русский (Профессиональный (многоголосый)), AC3, 2ch (L,R), 192 кбит/с 48 KHz | 1 Канал|
Звук #4: Русский (Профессиональный (многоголосый)), AC3, 2ch (L,R), 192 кбит/с 48 KHz |ТК "Россия"|
Звук #5: Русский (Профессиональный (один голос)), AC3, 2ch (L,R), 192 кбит/с 48 KHz |П. Карцев|
Звук #6: Английский (Оригинал), AC3, 6ch (L, C, R, Ls, Rs +LFE), 448 кбит/с 48 KHz
Субтитры: Русский, Английский
Релиз группы:

HDv 0day Team

Награды

Оскар, 1996 год
Номинации (1):
.Лучшая женская роль (Мэрил Стрип)
---------------------------------------------------------------------------------------------------
Золотой глобус, 1996 год
Номинации (2):
.Лучший фильм (драма)
.Лучшая женская роль (драма) (Мэрил Стрип)
---------------------------------------------------------------------------------------------------
Сезар, 1996 год
Номинации (1):
.Лучший фильм на иностранном языке

Знаете ли вы, что...

* В 1993 году фильм собирался снимать Сидней Поллак. На главную роль он приглашал своего любимого актера Роберта Редфорда, а роль Франчески могли сыграть Анжелика Хьюстон, Сюзан Сарандон, Джессика Лэнг или Барбара Херши.
* Стать режиссером фильма также мог Брюс Бересфорд. Но он хотел сделать главную героиню англичанкой, и когда студия отказалась, ушел из проекта.
* Кедровый мост, на котором встретились Франческа и Роберт, был уничтожен 3 сентября 2002-го.
* Мерил Стрип пришлось набрать лишний вес, чтобы выглядеть на экране обычной американской домохозяйкой.
* Автор романа Роберт Джеймс Уоллер написал свою книгу за 11 дней и вначале не планировал ее издавать. Он просто давал читать ее своим друзьям, и один из них посоветовал Уоллеру найти литературного агента. Агент был найден в Нью-Йорке.

MediaInfo

Format : Matroska
Format version : Version 2
File size : 6.14 GiB
Duration : 2h 7mn
Overall bit rate mode : Variable
Overall bit rate : 6 908 Kbps
Encoded date : UTC 2009-08-14 21:39:31
Writing application : mkvmerge v2.9.5 ('Tu es le seul') built on Jun 7 2009 11:07:07
Writing library : libebml v0.7.7 + libmatroska v0.8.1
Video
ID : 1
Format : AVC
Format/Info : Advanced Video Codec
Format profile : High@L4.1
Format settings, CABAC : Yes
Format settings, ReFrames : 3 frames
Codec ID : V_MPEG4/ISO/AVC
Duration : 2h 7mn
Bit rate mode : Variable
Bit rate : 5 106 Kbps
Maximum bit rate : 25.0 Mbps
Width : 1 280 pixels
Height : 720 pixels
Display aspect ratio : 16:9
Frame rate mode : Constant
Frame rate : 25.000 fps
Color space : YUV
Chroma subsampling : 4:2:0
Bit depth : 8 bits
Scan type : Progressive
Bits/(Pixel*Frame) : 0.222
Stream size : 4.54 GiB (74%)
Default : Yes
Forced : No
Audio #1
ID : 2
Format : AC-3
Format/Info : Audio Coding 3
Mode extension : CM (complete main)
Format settings, Endianness : Big
Codec ID : A_AC3
Duration : 2h 7mn
Bit rate mode : Constant
Bit rate : 448 Kbps
Channel(s) : 6 channels
Channel positions : Front: L C R, Side: L R, LFE
Sampling rate : 48.0 KHz
Bit depth : 16 bits
Compression mode : Lossy
Stream size : 408 MiB (6%)
Title : AC3 5.1 448 kbps |Многоголосный закадровый №1|
Language : Russian
Default : Yes
Forced : No
Audio #2
ID : 3
Format : AC-3
Format/Info : Audio Coding 3
Mode extension : CM (complete main)
Format settings, Endianness : Big
Codec ID : A_AC3
Duration : 2h 7mn
Bit rate mode : Constant
Bit rate : 192 Kbps
Channel(s) : 2 channels
Channel positions : Front: L R
Sampling rate : 48.0 KHz
Bit depth : 16 bits
Compression mode : Lossy
Stream size : 175 MiB (3%)
Title : AC3 2,0 192 kbps |Многоголосный закадровый №2|
Language : Russian
Default : No
Forced : No
Audio #3
ID : 4
Format : AC-3
Format/Info : Audio Coding 3
Mode extension : CM (complete main)
Format settings, Endianness : Big
Codec ID : A_AC3
Duration : 2h 7mn
Bit rate mode : Constant
Bit rate : 192 Kbps
Channel(s) : 2 channels
Channel positions : Front: L R
Sampling rate : 48.0 KHz
Bit depth : 16 bits
Compression mode : Lossy
Stream size : 175 MiB (3%)
Title : AC3 2,0 192 kbps |Многоголосный закадровый "1 канал"|
Language : Russian
Default : No
Forced : No
Audio #4
ID : 5
Format : AC-3
Format/Info : Audio Coding 3
Mode extension : CM (complete main)
Format settings, Endianness : Big
Codec ID : A_AC3
Duration : 2h 7mn
Bit rate mode : Constant
Bit rate : 192 Kbps
Channel(s) : 2 channels
Channel positions : Front: L R
Sampling rate : 48.0 KHz
Bit depth : 16 bits
Compression mode : Lossy
Stream size : 175 MiB (3%)
Title : AC3 2,0 192 kbps |Многоголосный закадровый ТК "Россия"|
Language : Russian
Default : No
Forced : No
Audio #5
ID : 6
Format : AC-3
Format/Info : Audio Coding 3
Mode extension : CM (complete main)
Format settings, Endianness : Big
Codec ID : A_AC3
Duration : 2h 7mn
Bit rate mode : Constant
Bit rate : 192 Kbps
Channel(s) : 2 channels
Channel positions : Front: L R
Sampling rate : 48.0 KHz
Bit depth : 16 bits
Compression mode : Lossy
Stream size : 175 MiB (3%)
Title : AC3 2,0 192 kbps |одноголосый закадровый "Карцев"|
Language : Russian
Default : No
Forced : No
Audio #6
ID : 7
Format : AC-3
Format/Info : Audio Coding 3
Mode extension : CM (complete main)
Format settings, Endianness : Big
Codec ID : A_AC3
Duration : 2h 7mn
Bit rate mode : Constant
Bit rate : 448 Kbps
Channel(s) : 6 channels
Channel positions : Front: L C R, Side: L R, LFE
Sampling rate : 48.0 KHz
Bit depth : 16 bits
Compression mode : Lossy
Stream size : 408 MiB (6%)
Title : AC3 5.1 448 kbps |Оригинал|
Language : English
Default : No
Forced : No
Text #1
ID : 8
Format : UTF-8
Codec ID : S_TEXT/UTF8
Codec ID/Info : UTF-8 Plain Text
Language : Russian
Default : Yes
Forced : No
Text #2
ID : 9
Format : UTF-8
Codec ID : S_TEXT/UTF8
Codec ID/Info : UTF-8 Plain Text
Language : English
Default : No
Forced : No

Запасной постер

[cybertorrent.ru].t50412.torrent 
Торрент: Зарегистрирован [ 2018-08-08 15:50 ] · 0579897699912F2A65203012F507731DF49C7852

Скачать .torrent

Скачать

31 KB

Статус: проверено
Скачан: 0 раз
Размер: 6,14 GB
terms.php
[Профиль] [ЛС]
Показать сообщения:    
Ответить на тему

Текущее время: 23-Фев 16:11

Часовой пояс: UTC + 3



Вы не можете начинать темы
Вы не можете отвечать на сообщения
Вы не можете редактировать свои сообщения
Вы не можете удалять свои сообщения
Вы не можете голосовать в опросах
Вы не можете прикреплять файлы к сообщениям
Вы можете скачивать файлы