Статистика раздачи
Размер:  1,28 GB   |    Зарегистрирован:  2 месяца 21 день   |    Скачан:  0 раз

Полного источника не было: Никогда

 
   
 
 

Симка ®

Пол:
Не указан
Стаж:
5 месяцев 2 дня
Сообщений:
73

Тревоги первых птиц
Жанр: Драма
Год выпуска: 1985
Продолжительность: 01:24:59
Режиссёр: Диамара Нижниковская
В ролях: Борис Борисов, Евгений Меньшов, Марина Карманова, Светлана Тормахова, Иван Сидоров, Фёдор Валиков, Софья Горшкова, Антонина Бендова, Людмила Писарева, Наталия Дмитриева, Петр Солдатов, Николай Волков, Евгения Лыжина, Е. Донец, Юля Феофилова
Описание: 1944 год. Сержант Василий Калина после госпиталя возвращается в родную деревню Пасторонь. Но не находит деревни: отступая, немцы сжигали все дома и минировали поля.
Доп. информация: Запись потока *.ts со спутника ABS-2, 75° в.д., ремукс в *.mkv программой VideoReDo.
Качество видео: DVB
Формат видео: MKV
Видео: MPEG2 Video, 704(768)x576 (4:3), 25,000 кадров/сек, 1 921 Кбит/сек
Аудио: MPEG Audio, 48,0 КГц, 192 Кбит/сек, 2 канала

MediaInfo

General
Unique ID : 12850402248141753266103195424447651753 (0x9AAE5BF32E2B30C4331090FC82DDFA9)
Complete name : F:\НАШЕ_С_Я\ТРЕВОГИ ПЕРВЫХ ПТИЦ (TPO).mkv
Format : Matroska
Format version : Version 2
File size : 1.28 GiB
Duration : 1 h 24 min
Overall bit rate mode : Variable
Overall bit rate : 2 156 kb/s
Writing application : Lavf52.64.2
Writing library : Lavf52.64.2
Video
ID : 1
Format : MPEG Video
Format version : Version 2
Format profile : Main@Main
Format settings : CustomMatrix / BVOP
Format settings, BVOP : Yes
Format settings, Matrix : Custom
Format settings, GOP : Variable
Format settings, picture st : Frame
Codec ID : V_MPEG2
Codec ID/Info : MPEG 1 or 2 Video
Duration : 1 h 24 min
Bit rate mode : Variable
Bit rate : 1 921 kb/s
Maximum bit rate : 15.0 Mb/s
Width : 704 pixels
Height : 576 pixels
Display aspect ratio : 4:3
Original display aspect rat : 4:3
Frame rate mode : Constant
Frame rate : 25.000 FPS
Standard : PAL
Color space : YUV
Chroma subsampling : 4:2:0
Bit depth : 8 bits
Scan type : Interlaced
Scan order : Top Field First
Compression mode : Lossy
Bits/(Pixel*Frame) : 0.190
Stream size : 1.14 GiB (89%)
Default : Yes
Forced : No
Audio
ID : 2
Format : MPEG Audio
Format version : Version 1
Format profile : Layer 2
Codec ID : A_MPEG/L2
Codec ID/Hint : MP2
Duration : 1 h 24 min
Bit rate mode : Constant
Bit rate : 192 kb/s
Channel(s) : 2 channels
Sampling rate : 48.0 kHz
Compression mode : Lossy
Delay relative to video : 6 ms
Stream size : 117 MiB (9%)
Language : Russian
Default : Yes
Forced : No
[cybertorrent.ru].t50947.torrent 
Торрент: Зарегистрирован [ 2018-04-26 21:09 ] · 411E452ED7943FDFADDD9E16216869380A609854

Скачать .torrent

Скачать

13 KB

Статус: проверено
Скачан: 0 раз
Размер: 1,28 GB
Профиль [ЛС]
Показать сообщения:    

Текущее время: 18-Июл 05:01

Часовой пояс: UTC ± 0



Вы не можете начинать темы
Вы не можете отвечать на сообщения
Вы не можете редактировать свои сообщения
Вы не можете удалять свои сообщения
Вы не можете голосовать в опросах
Вы не можете прикреплять файлы к сообщениям
Вы можете скачивать файлы