Статистика раздачи
Размер:  1,13 GB   |    Зарегистрирован:  4 месяца 22 дня   |    Скачан:  0 раз

Полного источника не было: Никогда

 
   
 
 

Симка ®

Пол:
Не указан
Стаж:
7 месяцев 4 дня
Сообщений:
73

Райхан Жанр: драма
Студия: Ленфильм
Продолжительность: 01:11:21
Год выпуска: 1940-Режиссёр: Моисей Левин
В ролях: Хадиша Букеева, Елеубай Умурзаков, Серке Кожамкулов, Калибек Куанышпаев, Шакен Айманов, Рахия Койчубаева, Константин Нассонов, Сергей Бартенев, Жагда Огузбаев-Описание: О раскрепощении казахских женщин при Советской власти.
Октябрьская революция освободила казахский народ от гнета феодалов. Но в глухих горах еще держится байская власть. В районе Бала-Шакпак хозяйничает бай Жаксен. В счет погашения долга он решает взять в жены дочь бедной вдовы, Райхан. В первую же брачную дочь девушка бежит от ненавистного ей бая. С помощью русского коммуниста Андрея она уезжает в город учиться.
Проходят годы… Райхан возвращается в родной аул зоотехником. С большим трудом удается девушке убедить табунщиков следовать новым методом выпащивания конского молодняка. Постепенно крепнет авторитет Райхан. Между тем в ауле вновь появляется бай Жексен, бежавший из заключения. Он поджигает на горных пастбищах траву, чтобы спугнуть колхозных лошадей. Во время поисков табуна Райхан встречается с Жексеном. Девушке грозит гибель. Однако подоспевшие табунщики выручают Райхан.
-
Семпл: https://www.sendspace.com/file/gx8zer-Качество: DVB-AVC [Ел Арна] (эфир 21.02.2018)
Формат: MKV
Видео: AVC, 720x576 (4:3) @ 768x576, 25 fps, ~2071 kbps, 0.198 bit/pixel
Аудио: [RUS] MP2, 48 kHz, 2 ch, 192 kbps

Mediainfo

Общее
Уникальный идентификатор : 200493442228897451683552474119034259084 (0x96D5A1E53DB475D99B20FD43C94E468C)
Полное имя : F:\Райхан (1940) [Ел Арна].mkv
Формат : Matroska
Версия формата : Version 4 / Version 2
Размер файла : 1,13 Гбайт
Продолжительность : 1 ч. 11 м.
Общий поток : 2267 Кбит/сек
Дата кодирования : UTC 2018-02-21 11:43:04
Программа кодирования : mkvmerge v9.7.1 ('Pandemonium') 32bit
Библиотека кодирования : libebml v1.3.4 + libmatroska v1.4.5
Видео
Идентификатор : 1
Формат : AVC
Формат/Информация : Advanced Video Codec
Профиль формата : High@L3
Параметр CABAC формата : Да
Параметр RefFrames формата : 3 кадра
Идентификатор кодека : V_MPEG4/ISO/AVC
Продолжительность : 1 ч. 11 м.
Битрейт : 2071 Кбит/сек
Ширина : 720 пикселей
Высота : 576 пикселей
Соотношение сторон : 4:3
Соотношение сторон в оригинале : 16:9
Режим частоты кадров : Переменный
Частота кадров : 25,243 кадров/сек
Частота кадров в оригинале : 25,000 кадров/сек
Стандарт вещания : Component
Цветовое пространство : YUV
Субдискретизация насыщенности : 4:2:0
Битовая глубина : 8 бит
Тип развёртки : Чересстрочная
Метод сохранения типа развёртки : Раздельные поля
Порядок развёртки : Верхнее поле первое
Бит/(Пиксели*Кадры) : 0.198
Размер потока : 1,03 Гбайт (91%)
Default : Да
Forced : Нет
Цветовой диапазон : Limited
Основные цвета : BT.601 PAL
Характеристики трансфера : BT.470 System B, BT.470 System G
Коэффициенты матрицы : BT.470 System B, BT.470 System G
Аудио
Идентификатор : 2
Формат : MPEG Audio
Версия формата : Version 1
Профиль формата : Layer 2
Идентификатор кодека : A_MPEG/L2
Идентификатор кодека/Подсказка : MP2
Продолжительность : 1 ч. 11 м.
Вид битрейта : Постоянный
Битрейт : 192 Кбит/сек
Каналы : 2 канала
Частота : 48,0 КГц
Частота кадров : 41,667 кадра/сек (1152 SPF)
Метод сжатия : С потерями
Размер потока : 98,0 Мбайт (8%)
Язык : Russian
Default : Да
Forced : Нет

Скриншоты

[cybertorrent.ru].t50956.torrent 
Торрент: Зарегистрирован [ 2018-04-26 21:09 ] · 5B706CD0B43F59A278506DC2DB095AD43761B0BF

Скачать .torrent

Скачать

12 KB

Статус: проверено
Скачан: 0 раз
Размер: 1,13 GB
Профиль [ЛС]
Показать сообщения:    

Текущее время: 19-Сен 17:09

Часовой пояс: UTC ± 0



Вы не можете начинать темы
Вы не можете отвечать на сообщения
Вы не можете редактировать свои сообщения
Вы не можете удалять свои сообщения
Вы не можете голосовать в опросах
Вы не можете прикреплять файлы к сообщениям
Вы можете скачивать файлы
Torrents24.ru открытый BitTorrent Torrents24.pl открытый BitTorrent CyberTorrent.ru открытый BitTorrent BtList.ru рейтинг BitTorrent трекеров Яндекс.Метрика