Статистика раздачи
Размер:  4,78 GB   |    Зарегистрирован:  6 месяцев 23 дня   |    Скачан:  0 раз

Полного источника не было: Никогда

 
   
 
 

Симка ®

Пол:
Не указан
Стаж:
9 месяцев 5 дней
Сообщений:
47

Чёрный замок Ольшанский
Жанр: исторический, детектив, мистика, экранизация
Год выпуска: 1983
Продолжительность: 01:03:47 + 01:03:29
Режиссёр: Михаил Пташук
В ролях: Виктор Евграфов, Риманте Крилавичюте, Эдуард Марцевич, Леонид Марков, Геннадий Гарбук, Стасис Петронайтис, Юрий Катин-Ярцев, Генрикас Кураускас, Игорь Васильев, Михаил Матвеев, Здислав Стомма, Пётр Юрченков (ст.), Юрий Ступаков, Иван Мацкевич, Александр Рахленко, Виктор Лебедев, Нина Розанцева
Описание: По одноименному роману Владимира Короткевича.
История уходит корнями в глубокую древность 18 века. В те далекие смутные времена князь Ольшанский крадет казну и драгоценности повстанцев, но таинственным образом исчезает, оставив манускрипт, в котором указано местонахождение сокровищ.
В наше время последний потомок князей Ольшанских разыскивает этот манускрипт, который случайно попал в руки одного любителя старины.
Доп. информация: Запись потока *.ts со спутника Экспресс АМ6, 53° в.д., ремукс в *.mkv программой VideoReDo.
Качество видео: DVB
Формат видео: MKV
Видео: MPEG Video, 720x576 (4:3), 25,000 кадров/сек, 5 012 Кбит/сек
Аудио: MPEG Audio, 48,0 КГц, 256 Кбит/сек, 2 канала

MediaInfo

General
Unique ID : 132826966670363807890895475144802623644 (0x63ED8B12A540201AFC6F0E070E2EE09C)
Complete name : D:\Torrent\ЧЕРНЫЙ ЗАМОК ОЛЬШАНСКИЙ\ЧЕРНЫЙ ЗАМОК ОЛЬШАНСКИЙ 01 (Kultura 53).mkv
Format : Matroska
Format version : Version 2
File size : 2.40 GiB
Duration : 1 h 3 min
Overall bit rate mode : Variable
Overall bit rate : 5 375 kb/s
Writing application : Lavf52.64.2
Writing library : Lavf52.64.2
Video
ID : 1
Format : MPEG Video
Format version : Version 2
Format profile : Main@Main
Format settings : CustomMatrix / BVOP
Format settings, BVOP : Yes
Format settings, Matrix : Custom
Format settings, GOP : M=3, N=15
Format settings, picture st : Frame
Codec ID : V_MPEG2
Codec ID/Info : MPEG 1 or 2 Video
Duration : 1 h 3 min
Bit rate mode : Variable
Bit rate : 5 012 kb/s
Maximum bit rate : 15.0 Mb/s
Width : 720 pixels
Height : 576 pixels
Display aspect ratio : 16:9
Original display aspect rat : 16:9
Frame rate mode : Constant
Frame rate : 25.000 FPS
Standard : PAL
Color space : YUV
Chroma subsampling : 4:2:0
Bit depth : 8 bits
Scan type : Interlaced
Scan order : Top Field First
Compression mode : Lossy
Bits/(Pixel*Frame) : 0.483
Stream size : 2.23 GiB (93%)
Default : Yes
Forced : No
Audio
ID : 2
Format : MPEG Audio
Format version : Version 1
Format profile : Layer 2
Codec ID : A_MPEG/L2
Codec ID/Hint : MP2
Duration : 1 h 3 min
Bit rate mode : Constant
Bit rate : 256 kb/s
Channel(s) : 2 channels
Sampling rate : 48.0 kHz
Compression mode : Lossy
Delay relative to video : 2 ms
Stream size : 117 MiB (5%)
Language : English
Default : Yes
Forced : No
General
Unique ID : 218711423393255241027746505405377349466 (0xA48A49B70AF974F6E89D63988999075A)
Complete name : D:\Torrent\ЧЕРНЫЙ ЗАМОК ОЛЬШАНСКИЙ\ЧЕРНЫЙ ЗАМОК ОЛЬШАНСКИЙ 02 (Kultura 53).mkv
Format : Matroska
Format version : Version 2
File size : 2.38 GiB
Duration : 1 h 3 min
Overall bit rate mode : Variable
Overall bit rate : 5 375 kb/s
Writing application : Lavf52.64.2
Writing library : Lavf52.64.2
Video
ID : 1
Format : MPEG Video
Format version : Version 2
Format profile : Main@Main
Format settings : CustomMatrix / BVOP
Format settings, BVOP : Yes
Format settings, Matrix : Custom
Format settings, GOP : M=3, N=15
Format settings, picture st : Frame
Codec ID : V_MPEG2
Codec ID/Info : MPEG 1 or 2 Video
Duration : 1 h 3 min
Bit rate mode : Variable
Bit rate : 5 012 kb/s
Maximum bit rate : 15.0 Mb/s
Width : 720 pixels
Height : 576 pixels
Display aspect ratio : 16:9
Original display aspect rat : 16:9
Frame rate mode : Constant
Frame rate : 25.000 FPS
Standard : PAL
Color space : YUV
Chroma subsampling : 4:2:0
Bit depth : 8 bits
Scan type : Interlaced
Scan order : Top Field First
Compression mode : Lossy
Bits/(Pixel*Frame) : 0.483
Stream size : 2.22 GiB (93%)
Default : Yes
Forced : No
Audio
ID : 2
Format : MPEG Audio
Format version : Version 1
Format profile : Layer 2
Codec ID : A_MPEG/L2
Codec ID/Hint : MP2
Duration : 1 h 3 min
Bit rate mode : Constant
Bit rate : 256 kb/s
Channel(s) : 2 channels
Sampling rate : 48.0 kHz
Compression mode : Lossy
Delay relative to video : 2 ms
Stream size : 116 MiB (5%)
Language : English
Default : Yes
Forced : No
[cybertorrent.ru].t50957.torrent 
Торрент: Зарегистрирован [ 2018-04-26 21:09 ] · 2003F52084BAF98EB51DD207B21586800D6255F1

Скачать .torrent

Скачать

25 KB

Статус: проверено
Скачан: 0 раз
Размер: 4,78 GB
Профиль [ЛС]
Показать сообщения:    

Текущее время: 20-Ноя 19:41

Часовой пояс: UTC ± 0



Вы не можете начинать темы
Вы не можете отвечать на сообщения
Вы не можете редактировать свои сообщения
Вы не можете удалять свои сообщения
Вы не можете голосовать в опросах
Вы не можете прикреплять файлы к сообщениям
Вы можете скачивать файлы
Torrents24.ru открытый BitTorrent Torrents24.pl открытый BitTorrent CyberTorrent.ru открытый BitTorrent BtList.ru рейтинг BitTorrent трекеров Яндекс.Метрика