BitTorrent клиенты



Аттракцион (Алексей Дёмин) [1995, Россия, мультфильм, сатира, WEBRip]

Ответить на тему
Статистика раздачи
Размер:  37 MB   |    Зарегистрирован:  6 месяцев 10 дней   |    Скачан:  0 раз

Полного источника не было: Никогда

 
   
 
 
Автор Сообщение

Makar ®

Пол: Не указан

Стаж: 1 год

Сообщений: 296

Создавать темы 13-Авг-2018 16:04

[Цитировать]

Аттракцион
Страна: Россия
Жанр: мультфильм, сатира
Продолжительность: 00:02:56
Год выпуска: 1995
Режиссёр: Алексей Дёмин
Описание: Не смотря на пургу и сильный уклон, три пса упорно движутся к вершине, чтобы водрузить там знамя...
Качество: WEBRip
Формат: AVI
Видео: 1591 kbps, 640х480 (4:3), 25.000 fps, MPEG-4 Visual (XviD)
Аудио: 160 kbps, 44.1 kHz, 2 channels, MPEG Audio (MP3)
Субтитры: отсутствуют

Подробные технические данные

General
Complete name : Аттракцион (1995).avi
Format : AVI
Format/Info : Audio Video Interleave
File size : 37.1 MiB
Duration : 2mn 56s
Overall bit rate : 1 764 Kbps
Writing application : Lavf55.19.104
Video
ID : 0
Format : MPEG-4 Visual
Format profile : Simple@L3
Format settings, BVOP : No
Format settings, QPel : No
Format settings, GMC : No warppoints
Format settings, Matrix : Default (H.263)
Codec ID : XVID
Codec ID/Hint : XviD
Duration : 2mn 56s
Bit rate : 1 591 Kbps
Width : 640 pixels
Height : 480 pixels
Display aspect ratio : 4:3
Frame rate : 25.000 fps
Color space : YUV
Chroma subsampling : 4:2:0
Bit depth : 8 bits
Scan type : Progressive
Compression mode : Lossy
Bits/(Pixel*Frame) : 0.207
Stream size : 33.4 MiB (90%)
Writing library : XviD 73
Audio
ID : 1
Format : MPEG Audio
Format version : Version 1
Format profile : Layer 3
Mode : Joint stereo
Mode extension : MS Stereo
Codec ID : 55
Codec ID/Hint : MP3
Duration : 2mn 56s
Bit rate mode : Constant
Bit rate : 160 Kbps
Channel(s) : 2 channels
Sampling rate : 44.1 KHz
Compression mode : Lossy
Stream size : 3.36 MiB (9%)
Alignment : Aligned on interleaves
Interleave, duration : 26 ms (0.65 video frame)
Writing library : LAME3.99.5ЄЄЄЄЄЄЄЄЄЄ

Скриншоты

[cybertorrent.ru].t50974.torrent 
Торрент: Зарегистрирован [ 2018-08-13 16:05 ] · A43AA6060F5B6A15183B293ACBDB4B0F4F9C7256

Скачать .torrent

Скачать

12 KB

Статус: проверено
Скачан: 0 раз
Размер: 37 MB
terms.php
[Профиль] [ЛС]
Показать сообщения:    
Ответить на тему

Текущее время: 23-Фев 16:15

Часовой пояс: UTC + 3



Вы не можете начинать темы
Вы не можете отвечать на сообщения
Вы не можете редактировать свои сообщения
Вы не можете удалять свои сообщения
Вы не можете голосовать в опросах
Вы не можете прикреплять файлы к сообщениям
Вы можете скачивать файлы