Статистика раздачи
Размер:  1,45 GB   |    Зарегистрирован:  6 месяцев 23 дня   |    Скачан:  0 раз

Полного источника не было: Никогда

 
   
 
 

Симка ®

Пол:
Не указан
Стаж:
9 месяцев 5 дней
Сообщений:
47

Пассажир с «Экватора»- Жанр: приключения
Год выпуска: 1970
Продолжительность: 01:17:32-Режиссёр: Александр Курочкин-В ролях:
Юрий Крюков, Вячеслав Цюпа, Виктор Морус, Татьяна Горячкина, Игорь Пушаков, Сергей Макридин, Михаил Волков, Александр Мартынов, Арина Алейникова, Владимир Кенигсон, Юрий Чекулаев, Николай Горлов, Тамара Яренко, Людмила Алпатова, Леонид Довлатов.
Описание:
Ильмар плывёт вместе со своими друзьями на большом теплоходе «Экватор» на летний отдых в пионерский лагерь на берегу Чёрного моря. Он становится случайным свидетелем того, как иностранный пассажир - коммерсант мистер Пипп тайком спускает в море радиобуй. Заметив мальчика, Пипп сбрасывает его в море-Исходник | Сэмпл | Кинопоиск-Качество видео: SATRip-AVC, спасибо Лeoпoльд за исходник.
Формат видео: MKV
Видео: x264: (High@L4.1); 692@754x562, Display aspect ratio 1.341:1, 25.000 fps, 2480 Kbps
Аудио: AC-3; 16 bits 48 Khz; 2.0ch 192 Kbps; CBR

MediaInfo

x264 log

avs [info]: 692x562p 12:11 @ 25/1 fps (cfr)
x264 [info]: using SAR=12/11
x264 [info]: using cpu capabilities: MMX2 SSE2Fast SSSE3 SSE4.2
x264 [info]: profile High, level 4.1
x264 [info]: frame I:668 Avg QP:18.42 size: 59317
x264 [info]: frame P:32535 Avg QP:20.90 size: 23295
x264 [info]: frame B:83101 Avg QP:22.86 size: 7758
x264 [info]: consecutive B-frames: 6.4% 3.2% 13.4% 33.1% 18.4% 23.2% 1.1% 0.2% 0.3%
x264 [info]: mb I I16..4: 7.3% 72.6% 20.2%
x264 [info]: mb P I16..4: 0.7% 15.9% 3.7% P16..4: 37.3% 24.7% 15.8% 0.7% 0.2% skip: 1.1%
x264 [info]: mb B I16..4: 0.0% 1.5% 0.6% B16..8: 39.9% 15.5% 4.4% direct: 8.2% skip:30.0% L0:35.4% L1:38.2% BI:26.4%
x264 [info]: 8x8 transform intra:76.3% inter:63.7%
x264 [info]: direct mvs spatial:99.1% temporal:0.9%
x264 [info]: coded y,uvDC,uvAC intra: 91.8% 80.6% 43.0% inter: 34.8% 29.1% 6.7%
x264 [info]: i16 v,h,dc,p: 26% 8% 17% 49%
x264 [info]: i8 v,h,dc,ddl,ddr,vr,hd,vl,hu: 13% 13% 6% 8% 11% 11% 13% 10% 14%
x264 [info]: i4 v,h,dc,ddl,ddr,vr,hd,vl,hu: 28% 14% 3% 6% 10% 10% 10% 8% 10%
x264 [info]: i8c dc,h,v,p: 38% 25% 20% 16%
x264 [info]: Weighted P-Frames: Y:22.6% UV:8.3%
x264 [info]: ref P L0: 51.2% 15.3% 11.7% 4.6% 3.4% 2.5% 2.2% 1.4% 1.3% 1.1% 1.1% 0.9% 0.9% 0.8% 0.9% 0.7%
x264 [info]: ref B L0: 88.3% 4.8% 1.9% 1.1% 0.8% 0.7% 0.5% 0.4% 0.3% 0.3% 0.3% 0.3% 0.2% 0.2% 0.1%
x264 [info]: ref B L1: 98.8% 1.2%
x264 [info]: kb/s:2480.09
-General
Unique ID : 201012190798048655035661549282210098185 (0x97398A2CB1CBF599AAD9C9B28D982C09)
Complete name : Пассажир с Экватора.1970.mkv
Format : Matroska
Format version : Version 2
File size : 1.45 GiB
Duration : 1 h 17 min
Overall bit rate : 2 674 kb/s
Encoded date : UTC 2018-04-03 13:34:01
Writing application : mkvmerge v7.8.0 ('River Man') 32bit built on Mar 27 2015 16:18:02
Writing library : libebml v1.3.1 + libmatroska v1.4.2
Video
ID : 1
Format : AVC
Format/Info : Advanced Video Codec
Format profile : High@L4.1
Format settings, CABAC : Yes
Format settings, ReFrames : 16 frames
Codec ID : V_MPEG4/ISO/AVC
Duration : 1 h 17 min
Bit rate : 2 480 kb/s
Width : 692 pixels
Height : 562 pixels
Display aspect ratio : 4:3
Original display aspect rat : 4:3
Frame rate mode : Constant
Frame rate : 25.000 FPS
Color space : YUV
Chroma subsampling : 4:2:0
Bit depth : 8 bits
Scan type : Progressive
Bits/(Pixel*Frame) : 0.255
Stream size : 1.32 GiB (91%)
Title : Пассажир с Экватора.1970
Writing library : x264 core 152 r2851kMod ba24899
Encoding settings : cabac=1 / ref=16 / deblock=1:-2:-2 / analyse=0x3:0x133 / me=umh / subme=10 / psy=1 / fade_compensate=0.00 / psy_rd=1.02:0.15 / mixed_ref=1 / me_range=24 / chroma_me=1 / trellis=2 / 8x8dct=1 / cqm=0 / deadzone=21,11 / fast_pskip=0 / chroma_qp_offset=-3 / threads=12 / lookahead_threads=2 / sliced_threads=0 / nr=0 / decimate=0 / interlaced=0 / bluray_compat=0 / constrained_intra=0 / bframes=8 / b_pyramid=2 / b_adapt=2 / b_bias=0 / direct=3 / weightb=1 / open_gop=0 / weightp=2 / keyint=250 / keyint_min=25 / scenecut=40 / intra_refresh=0 / rc_lookahead=60 / rc=2pass / mbtree=0 / bitrate=2480 / ratetol=1.0 / qcomp=0.60 / qpmin=0 / qpmax=69 / qpstep=4 / cplxblur=20.0 / qblur=0.5 / vbv_maxrate=62500 / vbv_bufsize=78125 / nal_hrd=none / filler=0 / ip_ratio=1.30 / pb_ratio=1.30 / aq=1:0.80
Language : Russian
Default : Yes
Forced : No
Color range : Limited
Color primaries : BT.601 PAL
Transfer characteristics : BT.470 System B, BT.470 System G
Matrix coefficients : BT.601
Audio
ID : 2
Format : AC-3
Format/Info : Audio Coding 3
Mode extension : CM (complete main)
Format settings, Endianness : Big
Codec ID : A_AC3
Duration : 1 h 17 min
Bit rate mode : Constant
Bit rate : 192 kb/s
Channel(s) : 2 channels
Channel positions : Front: L R
Sampling rate : 48.0 kHz
Frame rate : 31.250 FPS (1536 spf)
Compression mode : Lossy
Stream size : 106 MiB (7%)
Title : AC-3; 16 bits 48 Khz; 2.0ch 192 Kbps; CBR
Language : Russian
Default : Yes
Forced : No

Скриншоты

[cybertorrent.ru].t50970.torrent 
Торрент: Зарегистрирован [ 2018-04-26 21:09 ] · A3A264A3BB6A8130A47FA593171324D09E91C3B5

Скачать .torrent

Скачать

15 KB

Статус: проверено
Скачан: 0 раз
Размер: 1,45 GB
Профиль [ЛС]
Показать сообщения:    

Текущее время: 20-Ноя 19:58

Часовой пояс: UTC ± 0



Вы не можете начинать темы
Вы не можете отвечать на сообщения
Вы не можете редактировать свои сообщения
Вы не можете удалять свои сообщения
Вы не можете голосовать в опросах
Вы не можете прикреплять файлы к сообщениям
Вы можете скачивать файлы
Torrents24.ru открытый BitTorrent Torrents24.pl открытый BitTorrent CyberTorrent.ru открытый BitTorrent BtList.ru рейтинг BitTorrent трекеров Яндекс.Метрика