Статистика раздачи
Размер:  1,46 GB   |    Зарегистрирован:  6 месяцев 18 дней   |    Скачан:  0 раз

Полного источника не было: Никогда

 
   
 
 

Симка ®

Пол:
Не указан
Стаж:
9 месяцев
Сообщений:
47

Вам что, наша власть не нравится?

Жанр: комедия
Год выпуска: 1988
Продолжительность: 01:28:42

Режиссёр: Анатолий Добровский
В ролях: Андрей Петров, Марина Полицеймако, Владимир Стеклов, Любовь Полехина, Нина Дорошина, Виктор Павлов, Вячеслав Невинный, Лев Борисов, Юрий Воробьев, Алексей Консовский, Людмила Иванова, Капитолина Ильенко, Алексей Миронов, Виктор Степанов, Леонид Персиянинов, Сергей Рубеко, Николай Парфёнов, Николай Карнаухов, Марина Поляк, Олег Измайлов, Валентин Смирнитский, Виктор Филиппов и другие
Описание: В одной коммунальной квартире встал как-то вопрос о том, чтобы перенести одну из дверей немного в сторону и увеличить площадь комнаты — всего на каких-то полтора квадратных метра. Решать этот «сложный» вопрос, пришлось в итоге чуть ли не на самом высоком уровне.
Качество видео: SATRip
Формат видео: AVI
Видео: 720x320 (2.25:1), 25 fps, XviD build 73 ~2146 kbps avg, 0.37 bit/pixel
Аудио: 48 kHz, AC3 Dolby Digital, 2/0 (L,R) ch, ~192 kbps

Сравнение

http://cybertorrent.ru/viewtopic.php?t=3006580--ajnjgbnth______________________teko


MediaInfo

General
Complete name : H:\Вам.что,наша.власть.не.нравится.1988.satrip_1.46_[teko].avi
Format : AVI
Format/Info : Audio Video Interleave
File size : 1.46 GiB
Duration : 1h 28mn
Overall bit rate : 2 349 Kbps
Writing application : VirtualDubMod 1.5.10.3 | www.virtualdub-fr.org || (build 2550/release)
Writing library : VirtualDubMod build 2550/release
Video
ID : 0
Format : MPEG-4 Visual
Format profile : Advanced Simple@L5
Format settings, BVOP : 2
Format settings, QPel : No
Format settings, GMC : No warppoints
Format settings, Matrix : Custom
Codec ID : XVID
Codec ID/Hint : XviD
Duration : 1h 28mn
Bit rate : 2 147 Kbps
Width : 720 pixels
Height : 320 pixels
Display aspect ratio : 2.25:1
Frame rate : 25.000 fps
Color space : YUV
Chroma subsampling : 4:2:0
Bit depth : 8 bits
Scan type : Progressive
Compression mode : Lossy
Bits/(Pixel*Frame) : 0.373
Stream size : 1.33 GiB (91%)
Writing library : XviD 73
Audio
ID : 1
Format : AC-3
Format/Info : Audio Coding 3
Mode extension : CM (complete main)
Format settings, Endianness : Big
Codec ID : 2000
Duration : 1h 28mn
Bit rate mode : Constant
Bit rate : 192 Kbps
Channel(s) : 2 channels
Channel positions : Front: L R
Sampling rate : 48.0 KHz
Frame rate : 31.250 fps (1536 spf)
Compression mode : Lossy
Stream size : 122 MiB (8%)
Alignment : Split accross interleaves
Interleave, duration : 40 ms (1.00 video frame)
Interleave, preload duratio : 500 ms
Релиз группы:
--
[cybertorrent.ru].t51019.torrent 
Торрент: Зарегистрирован [ 2018-04-26 21:09 ] · CF73AF55E3DCE4DC3CF3F288807EE2FAAAC7C3D7

Скачать .torrent

Скачать

15 KB

Статус: проверено
Скачан: 0 раз
Размер: 1,46 GB
Профиль [ЛС]
Показать сообщения:    

Текущее время: 15-Ноя 10:56

Часовой пояс: UTC ± 0



Вы не можете начинать темы
Вы не можете отвечать на сообщения
Вы не можете редактировать свои сообщения
Вы не можете удалять свои сообщения
Вы не можете голосовать в опросах
Вы не можете прикреплять файлы к сообщениям
Вы можете скачивать файлы
Torrents24.ru открытый BitTorrent Torrents24.pl открытый BitTorrent CyberTorrent.ru открытый BitTorrent BtList.ru рейтинг BitTorrent трекеров Яндекс.Метрика