Статистика раздачи
Размер:  1,48 GB   |    Зарегистрирован:  2 месяца 25 дней   |    Скачан:  0 раз

Полного источника не было: Никогда

 
   
 
 

Симка ®

Пол:
Не указан
Стаж:
5 месяцев 7 дней
Сообщений:
73

...По прозвищу «Зверь»
Жанр: криминал
Год выпуска: 1990
Продолжительность: 01:23:30-Режиссёр: Александр Муратов
В ролях: Дмитрий Певцов, Татьяна Скороходова, Борис Щербаков, Юрий Назаров, Лев Прыгунов, Владимир Аникин, Армен Джигарханян, Евгений Евстигнеев, Владимир Самойлов, Игорь Ясулович, Валерий Носик, Вадим Яковлев, Борис Клюев, Владимир Ерёмин, Сергей Варчук, Василий Шлыков, Владимир Яковлев, Александр Аржиловский-Описание: Начало девяностых, ветеран Афганистана Савелий Говорков устраивается на работу к местному криминальному авторитету, охранять его любовницу. Непыльная работа вполне устраивала Савелия до тех пор, пока у него не завязались отношения с подопечной Ларисой. Любовная связь под носом у бандита — довольно опасное занятие, влекущее вполне очевидные последствия. Так, после попытки сбежать, Савелий оказывается в тюрьме, а Лариса — в психиатрической клинике. Криминальный боевик «По прозвищу «Зверь» является экранизацией романа В. Доценко «Срок для Бешеного»-Доп. информация: Звук с канала Дом кино
Отсинхронен без перекодирования
За запись спасибо karatak1
Сравнительные семплы:
ДВД
Дом кино
Семпл: минута56сек-Качество видео: DVDRip-AVC (спасибо casperG)
Формат видео: MKV
Видео: AVC, 674х526, 1,281, 25,000 кадров/сек, 2275 Кбит/сек
Аудио: MP2, 48,0 КГц, 256 Кбит/сек, 2 канала (Дом кино)

MediaInfo

x264.log

x264.exe: --pass 2 --bitrate 2275 --preset veryslow --profile high --level 4.1 --aq-mode 3 --merange 32 --bframes 9 --no-fast-pskip --no-dct-decimate --subme 11 --no-mbtree --min-keyint 25 --sar 1:1 --stats
avs [info]: 674x526p 1:1 @ 25/1 fps (cfr)
x264 [info]: using SAR=1/1
x264 [info]: using cpu capabilities: MMX2 SSE2Fast SSSE3 SSE4.1 Cache64
x264 [info]: profile High, level 4.1
x264 [info]: frame I:665 Avg QP:16.62 size: 53328
x264 [info]: frame P:29198 Avg QP:19.22 size: 23033
x264 [info]: frame B:95407 Avg QP:20.57 size: 7513
x264 [info]: consecutive B-frames: 1.9% 1.6% 10.3% 30.6% 24.7% 29.7% 1.0% 0.2% 0.1% 0.0%
x264 [info]: mb I I16..4: 1.8% 87.8% 10.4%
x264 [info]: mb P I16..4: 0.3% 11.7% 0.7% P16..4: 31.5% 38.1% 16.2% 1.2% 0.1% skip: 0.2%
x264 [info]: mb B I16..4: 0.1% 0.8% 0.1% B16..8: 37.4% 24.3% 4.0% direct: 8.5% skip:24.8% L0:41.8% L1:38.8% BI:19.4%
x264 [info]: 8x8 transform intra:90.3% inter:60.0%
x264 [info]: direct mvs spatial:96.6% temporal:3.4%
x264 [info]: coded y,uvDC,uvAC intra: 96.4% 91.1% 63.4% inter: 40.5% 35.3% 11.2%
x264 [info]: i16 v,h,dc,p: 79% 11% 0% 10%
x264 [info]: i8 v,h,dc,ddl,ddr,vr,hd,vl,hu: 12% 8% 6% 10% 14% 14% 12% 13% 12%
x264 [info]: i4 v,h,dc,ddl,ddr,vr,hd,vl,hu: 17% 16% 2% 7% 13% 14% 11% 10% 10%
x264 [info]: i8c dc,h,v,p: 38% 22% 21% 18%
x264 [info]: Weighted P-Frames: Y:11.4% UV:3.3%
x264 [info]: ref P L0: 36.5% 11.0% 17.2% 6.2% 6.1% 3.9% 4.3% 2.1% 2.4% 1.7% 2.0% 1.4% 1.7% 1.2% 1.5% 0.9%
x264 [info]: ref B L0: 82.8% 6.7% 2.5% 1.6% 1.1% 1.1% 0.8% 0.6% 0.5% 0.5% 0.4% 0.4% 0.3% 0.3% 0.2%
x264 [info]: ref B L1: 98.7% 1.3%
x264 [info]: kb/s:2274.74
encoded 125270 frames, 4.87 fps, 2274.74 kb/s
Общее
Уникальный идентификатор : 187019851040486604506794000277160444099 (0x8CB2B68FC70DB31D897AE1C25ADDC0C3)
Полное имя : ...По прозвищу «Зверь».1990.DVDRip.mkv
Формат : Matroska
Версия формата : Version 4 / Version 2
Размер файла : 1,48 Гбайт
Продолжительность : 1 ч. 23 м.
Общий поток : 2533 Кбит/сек
Название фильма : ...По прозвищу «Зверь» / 1990 / DVDRip
Дата кодирования : UTC 2018-04-18 05:47:45
Программа кодирования : mkvmerge v8.3.0 ('Over the Horizon') 32bit
Библиотека кодирования : libebml v1.3.1 + libmatroska v1.4.2
Видео
Идентификатор : 1
Формат : AVC
Формат/Информация : Advanced Video Codec
Профиль формата : High@L4.1
Настройки формата : CABAC / 16 Ref Frames
Параметр CABAC формата : Да
Параметр RefFrames формата : 16 кадров
Идентификатор кодека : V_MPEG4/ISO/AVC
Продолжительность : 1 ч. 23 м.
Битрейт : 2275 Кбит/сек
Ширина : 674 пикселя
Высота : 526 пикселей
Соотношение сторон : 1,281
Режим частоты кадров : Постоянный
Частота кадров : 25,000 кадров/сек
Цветовое пространство : YUV
Субдискретизация насыщенности : 4:2:0
Битовая глубина : 8 бит
Тип развёртки : Прогрессивная
Бит/(Пиксели*Кадры) : 0.257
Размер потока : 1,33 Гбайт (90%)
Заголовок : ...По прозвищу «Зверь» / 1990 / DVDRip
Библиотека кодирования : x264 core 152 r2851 ba24899
Настройки программы : cabac=1 / ref=16 / deblock=1:0:0 / analyse=0x3:0x133 / me=umh / subme=11 / psy=1 / psy_rd=1.00:0.00 / mixed_ref=1 / me_range=32 / chroma_me=1 / trellis=2 / 8x8dct=1 / cqm=0 / deadzone=21,11 / fast_pskip=0 / chroma_qp_offset=-2 / threads=6 / lookahead_threads=1 / sliced_threads=0 / nr=0 / decimate=0 / interlaced=0 / bluray_compat=0 / constrained_intra=0 / bframes=9 / b_pyramid=2 / b_adapt=2 / b_bias=0 / direct=3 / weightb=1 / open_gop=0 / weightp=2 / keyint=250 / keyint_min=25 / scenecut=40 / intra_refresh=0 / rc=2pass / mbtree=0 / bitrate=2275 / ratetol=1.0 / qcomp=0.60 / qpmin=0 / qpmax=69 / qpstep=4 / cplxblur=20.0 / qblur=0.5 / ip_ratio=1.40 / pb_ratio=1.30 / aq=3:1.00
Язык : Russian
Default : Да
Forced : Нет
Аудио
Идентификатор : 2
Формат : MPEG Audio
Версия формата : Version 1
Профиль формата : Layer 2
Идентификатор кодека : A_MPEG/L2
Идентификатор кодека/Подсказка : MP2
Продолжительность : 1 ч. 23 м.
Вид битрейта : Постоянный
Битрейт : 256 Кбит/сек
Каналы : 2 канала
Частота : 48,0 КГц
Частота кадров : 41,667 кадра/сек (1152 SPF)
Метод сжатия : С потерями
Размер потока : 153 Мбайт (10%)
Заголовок : Дом кино
Язык : Russian
Default : Да
Forced : Нет
[cybertorrent.ru].t51037.torrent 
Торрент: Зарегистрирован [ 2018-04-26 21:09 ] · A9052644863BDF453556725BA77B53A6B457385A

Скачать .torrent

Скачать

15 KB

Статус: проверено
Скачан: 0 раз
Размер: 1,48 GB
Профиль [ЛС]
Показать сообщения:    

Текущее время: 22-Июл 20:29

Часовой пояс: UTC ± 0



Вы не можете начинать темы
Вы не можете отвечать на сообщения
Вы не можете редактировать свои сообщения
Вы не можете удалять свои сообщения
Вы не можете голосовать в опросах
Вы не можете прикреплять файлы к сообщениям
Вы можете скачивать файлы