Статистика раздачи
Размер:  5,04 GB   |    Зарегистрирован:  4 месяца 29 дней   |    Скачан:  0 раз

Полного источника не было: Никогда

 
   
 
 

Симка ®

Пол:
Не указан
Стаж:
7 месяцев 10 дней
Сообщений:
73

Копилка
Жанр: комедия
Год выпуска: 1980
Продолжительность: 01:10:36 + 01:03:35
Режиссёр: Михаил Григорьев, Владимир Савельев
В ролях: Роман Ткачук, Игорь Дмитриев, Михаил Светин, Людмила Аринина, Григорий Абрикосов, Вера Новикова, Юрий Нифонтов, Анатолий Ромашин, Эрнест Романов, Анатолий Хостикоев, Зиновий Гердт, Лев Перфилов
Описание: Провинциальный рантье Шамбурси со своей семьей и друзьями приезжает в город с целью весело прокутить карточные выигрыши, откладывавшиеся в течение года в копилку. На долю героев фильма выпадает немало веселых приключений.
Доп. информация: Запись потока *.ts со спутника Экспресс АМ6, 53° в.д., ремукс в *.mkv программой VideoReDo.
Качество видео: DVB
Формат видео: MKV
Видео: MPEG Video, 1024x576 (16:9), 25,000 кадров/сек, 5 012 Кбит/сек
Аудио: MPEG Audio, 48,0 КГц, 256 Кбит/сек, 2 канала

MediaInfo

General
Unique ID : 52515875941894162092928790194629666938 (0x27823096F1A6D27C0ADC0349A4F4687A)
Complete name : D:\Torrent\КОПИЛКА\КОПИЛКА 1 (Kultura 53).mkv
Format : Matroska
Format version : Version 2
File size : 2.65 GiB
Duration : 1 h 10 min
Overall bit rate mode : Variable
Overall bit rate : 5 375 kb/s
Writing application : Lavf52.64.2
Writing library : Lavf52.64.2
Video
ID : 1
Format : MPEG Video
Format version : Version 2
Format profile : Main@Main
Format settings : CustomMatrix / BVOP
Format settings, BVOP : Yes
Format settings, Matrix : Custom
Format settings, GOP : M=3, N=15
Format settings, picture st : Frame
Codec ID : V_MPEG2
Codec ID/Info : MPEG 1 or 2 Video
Duration : 1 h 10 min
Bit rate mode : Variable
Bit rate : 5 012 kb/s
Maximum bit rate : 15.0 Mb/s
Width : 720 pixels
Height : 576 pixels
Display aspect ratio : 16:9
Original display aspect rat : 16:9
Frame rate mode : Constant
Frame rate : 25.000 FPS
Standard : PAL
Color space : YUV
Chroma subsampling : 4:2:0
Bit depth : 8 bits
Scan type : Interlaced
Scan order : Top Field First
Compression mode : Lossy
Bits/(Pixel*Frame) : 0.483
Stream size : 2.47 GiB (93%)
Default : Yes
Forced : No
Audio
ID : 2
Format : MPEG Audio
Format version : Version 1
Format profile : Layer 2
Codec ID : A_MPEG/L2
Codec ID/Hint : MP2
Duration : 1 h 10 min
Bit rate mode : Constant
Bit rate : 256 kb/s
Channel(s) : 2 channels
Sampling rate : 48.0 kHz
Compression mode : Lossy
Delay relative to video : 10 ms
Stream size : 129 MiB (5%)
Language : English
Default : Yes
Forced : No
General
Unique ID : 244490405196640295402020740360576484490 (0xB7EF23A5C7C6DC36A45A950F4614C48A)
Complete name : D:\Torrent\КОПИЛКА\КОПИЛКА 2 (Kultura 53).mkv
Format : Matroska
Format version : Version 2
File size : 2.39 GiB
Duration : 1 h 3 min
Overall bit rate mode : Variable
Overall bit rate : 5 375 kb/s
Writing application : Lavf52.64.2
Writing library : Lavf52.64.2
Video
ID : 1
Format : MPEG Video
Format version : Version 2
Format profile : Main@Main
Format settings : CustomMatrix / BVOP
Format settings, BVOP : Yes
Format settings, Matrix : Custom
Format settings, GOP : M=3, N=15
Format settings, picture st : Frame
Codec ID : V_MPEG2
Codec ID/Info : MPEG 1 or 2 Video
Duration : 1 h 3 min
Bit rate mode : Variable
Bit rate : 5 012 kb/s
Maximum bit rate : 15.0 Mb/s
Width : 720 pixels
Height : 576 pixels
Display aspect ratio : 16:9
Original display aspect rat : 16:9
Frame rate mode : Constant
Frame rate : 25.000 FPS
Standard : PAL
Color space : YUV
Chroma subsampling : 4:2:0
Bit depth : 8 bits
Scan type : Interlaced
Scan order : Top Field First
Compression mode : Lossy
Bits/(Pixel*Frame) : 0.483
Stream size : 2.23 GiB (93%)
Default : Yes
Forced : No
Audio
ID : 2
Format : MPEG Audio
Format version : Version 1
Format profile : Layer 2
Codec ID : A_MPEG/L2
Codec ID/Hint : MP2
Duration : 1 h 3 min
Bit rate mode : Constant
Bit rate : 256 kb/s
Channel(s) : 2 channels
Sampling rate : 48.0 kHz
Compression mode : Lossy
Delay relative to video : 10 ms
Stream size : 116 MiB (5%)
Language : English
Default : Yes
Forced : No
[cybertorrent.ru].t51047.torrent 
Торрент: Зарегистрирован [ 2018-04-26 21:09 ] · 8D5A85F111D66DF83CA936F42454A7BC2E6908AA

Скачать .torrent

Скачать

26 KB

Статус: проверено
Скачан: 0 раз
Размер: 5,04 GB
Профиль [ЛС]
Показать сообщения:    

Текущее время: 26-Сен 05:29

Часовой пояс: UTC ± 0



Вы не можете начинать темы
Вы не можете отвечать на сообщения
Вы не можете редактировать свои сообщения
Вы не можете удалять свои сообщения
Вы не можете голосовать в опросах
Вы не можете прикреплять файлы к сообщениям
Вы можете скачивать файлы
Torrents24.ru открытый BitTorrent Torrents24.pl открытый BitTorrent CyberTorrent.ru открытый BitTorrent BtList.ru рейтинг BitTorrent трекеров Яндекс.Метрика